<?xml version="1.0" standalone="no"?>
<!DOCTYPE svg PUBLIC "-//W3C//DTD SVG 1.1//EN" "http://www.w3.org/Graphics/SVG/1.1/DTD/svg11.dtd" >
<svg xmlns="http://www.w3.org/2000/svg">
<metadata>Generated by IcoMoon</metadata>
<defs>
<font id="zcfonts" horiz-adv-x="1024">
<font-face units-per-em="1024" ascent="960" descent="-64" />
<missing-glyph horiz-adv-x="1024" />
<glyph unicode="&#x20;" horiz-adv-x="512" d="" />
<glyph unicode="&#xe900;" glyph-name="folder" d="M426.667 789.333h-256c-47.36 0-85.333-37.973-85.333-85.333v-512c0-47.128 38.205-85.333 85.333-85.333h682.667c47.128 0 85.333 38.205 85.333 85.333v426.667c0 47.36-38.4 85.333-85.333 85.333h-341.333l-85.333 85.333z" />
<glyph unicode="&#xe901;" glyph-name="astrick" d="M514.456 874.84c-231.76 0-419.632-187.88-419.632-419.632s187.88-419.632 419.632-419.632 419.632 187.88 419.632 419.632-187.872 419.632-419.632 419.632zM745.928 453.432c-46.656-10.072-99.544-19.968-158.648-29.68l82.928-93.296c10.088-11.488 18.896-21.696 26.424-30.632 6.992-8.296 5.192-20.808-3.864-26.784l-73.192-48.32c-8.576-5.664-20.136-3.056-25.456 5.736l-83.552 138.008c-25.32-44.824-54.008-92.264-86.048-142.32-5.728-8.944-17.928-11.032-26.328-4.528l-73.312 56.808c-8.32 6.448-9.456 18.664-2.376 26.456 29.16 32.088 59.368 62.952 90.624 92.608 14.272 13.824 23.256 22.568 26.952 26.264-11.52 1.832-44.464 9.44-98.824 22.808-25.552 6.312-45.408 11.544-59.584 15.696-9.832 2.88-15.248 13.392-11.992 23.104l28.784 85.864c3.368 10.048 14.576 14.992 24.336 10.872 53.048-22.408 100.896-46.856 143.544-73.344-9.672 65.68-15.112 120.8-16.328 165.336-0.28 10.16 7.952 18.488 18.112 18.488h86.040c10.352 0 18.584-8.624 18.088-18.96-1.712-35.832-7.768-91.24-18.152-166.248 9.208 3.68 29.024 12.664 59.432 26.952 34.288 15.616 66.368 29.344 96.248 41.184 9.912 3.928 21.032-1.528 24.024-11.768l25.632-87.528c2.952-10.080-3.24-20.552-13.512-22.776z" />
<glyph unicode="&#xe902;" glyph-name="facebook-box" d="M896 960h-768c-70.692 0-128-57.308-128-128v-768c0-70.692 57.308-128 128-128h768c70.692 0 128 57.308 128 128v768c0 70.692-57.308 128-128 128zM665.92 667.52h-74.24c-0.463 0.027-1.004 0.043-1.549 0.043-15.552 0-28.16-12.608-28.16-28.16 0-1.369 0.098-2.716 0.287-4.033l-0.018-68.969h103.36l-11.84-118.4h-91.52v-334.080h-138.56v334.080h-65.6v118.4h65.92v75.84c-0.245 2.989-0.384 6.47-0.384 9.984 0 71.753 58.167 129.92 129.92 129.92 3.514 0 6.995-0.139 10.438-0.413l101.946 0.029z" />
<glyph unicode="&#xe903;" glyph-name="account-settings-variant" d="M384 789.333c-94.257 0-170.667-76.41-170.667-170.667s76.41-170.667 170.667-170.667c94.257 0 170.667 76.41 170.667 170.667s-76.41 170.667-170.667 170.667zM384 362.667c-113.92 0-341.333-56.747-341.333-170.667v-85.333h472.747c-2.133 14.080-3.413 28.16-3.413 42.667 0 64 21.333 128 60.16 179.2-65.28 22.187-137.813 34.133-188.16 34.133zM768 362.667c-5.547 0-10.24-3.84-11.093-8.96l-8.107-56.32c-12.8-5.547-25.173-12.373-36.267-20.053l-52.907 21.333c-4.693 0-10.24 0-13.227-5.547l-42.667-73.813c-2.56-4.693-1.707-10.24 2.56-13.653l45.227-34.987c-0.853-7.253-1.28-14.080-1.28-21.333s0.427-14.080 1.28-21.333l-45.227-34.987c-3.84-3.413-5.12-8.96-2.56-13.653l42.667-73.813c2.56-5.547 8.107-5.547 13.227-5.547l52.907 21.333c11.093-7.68 23.040-14.933 36.267-20.053l8.107-56.32c0.853-5.12 5.12-8.96 11.093-8.96h85.333c4.693 0 9.387 3.84 10.24 8.96l8.107 56.32c12.8 5.547 24.32 12.373 35.84 20.053l52.48-21.333c5.547 0 11.093 0 14.080 5.547l42.667 73.813c2.56 4.693 1.28 10.24-2.56 13.653l-45.653 34.987c0.853 7.253 1.707 14.080 1.707 21.333s-0.427 14.080-1.707 21.333l45.227 34.987c3.84 3.413 5.12 8.96 2.56 13.653l-42.667 73.813c-2.56 5.547-8.107 5.547-13.653 5.547l-52.48-21.333c-11.52 7.68-23.040 14.933-36.267 20.053l-8.107 56.32c-0.427 5.12-5.12 8.96-9.813 8.96zM810.667 213.333c35.346 0 64-28.654 64-64s-28.654-64-64-64c-35.84 0-64 28.587-64 64 0 35.346 28.654 64 64 64z" />
<glyph unicode="&#xe904;" glyph-name="lock-open" d="M768 618.667c47.128 0 85.333-38.205 85.333-85.333v-426.667c0-47.128-38.205-85.333-85.333-85.333h-512c-47.36 0-85.333 38.4-85.333 85.333v426.667c0 47.128 38.205 85.333 85.333 85.333h384v85.333c0 70.692-57.308 128-128 128s-128-57.308-128-128h-85.333c0 117.821 95.513 213.333 213.333 213.333s213.333-95.513 213.333-213.333v-85.333h42.667zM512 234.667c47.128 0 85.333 38.205 85.333 85.333s-38.205 85.333-85.333 85.333c-47.128 0-85.333-38.205-85.333-85.333s38.205-85.333 85.333-85.333z" />
<glyph unicode="&#xe905;" glyph-name="lock" d="M512 234.667c47.128 0 85.333 38.205 85.333 85.333 0 47.36-38.4 85.333-85.333 85.333-47.128 0-85.333-38.205-85.333-85.333s38.205-85.333 85.333-85.333zM768 618.667c47.128 0 85.333-38.205 85.333-85.333v-426.667c0-47.128-38.205-85.333-85.333-85.333h-512c-47.128 0-85.333 38.205-85.333 85.333v426.667c0 47.36 38.4 85.333 85.333 85.333h42.667v85.333c0 117.821 95.513 213.333 213.333 213.333s213.333-95.513 213.333-213.333v-85.333h42.667zM512 832c-70.692 0-128-57.308-128-128v-85.333h256v85.333c0 70.692-57.308 128-128 128z" />
<glyph unicode="&#xe906;" glyph-name="magnify" d="M405.333 832c153.167 0 277.333-124.166 277.333-277.333 0-68.693-25.173-131.84-66.56-180.48l11.52-11.52h33.707l213.333-213.333-64-64-213.333 213.333v33.707l-11.52 11.52c-48.64-41.387-111.787-66.56-180.48-66.56-153.167 0-277.333 124.166-277.333 277.333s124.166 277.333 277.333 277.333zM405.333 746.667c-106.667 0-192-85.333-192-192s85.333-192 192-192c106.667 0 192 85.333 192 192s-85.333 192-192 192z" />
<glyph unicode="&#xe907;" glyph-name="map-marker" d="M512 469.333c-58.91 0-106.667 47.756-106.667 106.667s47.756 106.667 106.667 106.667c58.91 0 106.667-47.756 106.667-106.667s-47.756-106.667-106.667-106.667zM512 874.667c-164.949 0-298.667-133.718-298.667-298.667 0-224 298.667-554.667 298.667-554.667s298.667 330.667 298.667 554.667c0 164.949-133.718 298.667-298.667 298.667z" />
<glyph unicode="&#xe908;" glyph-name="menu" d="M128 704h768v-85.333h-768v85.333zM128 490.667h768v-85.333h-768v85.333zM128 277.333h768v-85.333h-768v85.333z" />
<glyph unicode="&#xe909;" glyph-name="package-down" d="M218.453 746.667l34.56 42.667h512l40.107-42.667zM512 213.333l-234.667 234.667h149.333v85.333h170.667v-85.333h149.333l-234.667-234.667zM876.373 736.853l-59.307 71.68c-11.52 14.507-29.013 23.467-49.067 23.467h-512c-20.053 0-37.547-8.96-49.493-23.467l-58.88-71.68c-12.373-14.507-19.627-32.853-19.627-54.187v-533.333c0-47.128 38.205-85.333 85.333-85.333h597.333c47.128 0 85.333 38.205 85.333 85.333v533.333c0 21.333-7.253 39.68-19.627 54.187z" />
<glyph unicode="&#xe90a;" glyph-name="package-up" d="M876.373 736.853c12.373-14.507 19.627-32.853 19.627-54.187v-533.333c0-47.128-38.205-85.333-85.333-85.333h-597.333c-47.128 0-85.333 38.205-85.333 85.333v533.333c0 21.333 7.253 39.68 19.627 54.187l58.88 71.68c11.947 14.507 29.44 23.467 49.493 23.467h512c20.053 0 37.547-8.96 49.067-23.467l59.307-71.68zM218.453 746.667h586.667l-40.107 42.667h-512l-34.56-42.667zM512 554.667l-234.667-234.667h149.333v-85.333h170.667v85.333h149.333l-234.667 234.667z" />
<glyph unicode="&#xe90b;" glyph-name="phone" d="M282.453 499.627c61.44-120.747 160.427-219.733 281.173-281.173l93.867 93.867c11.947 11.947 28.587 15.36 43.52 10.667 47.787-15.787 98.987-24.32 152.32-24.32 23.564 0 42.667-19.103 42.667-42.667v-149.333c0-23.564-19.103-42.667-42.667-42.667-400.591 0-725.333 324.743-725.333 725.333 0 23.564 19.103 42.667 42.667 42.667h149.333c23.564 0 42.667-19.103 42.667-42.667 0-53.333 8.533-104.533 24.32-152.32 4.693-14.933 1.28-31.573-10.667-43.52l-93.867-93.867z" />
<glyph unicode="&#xe90c;" glyph-name="plus-box" d="M725.333 405.333h-170.667v-170.667h-85.333v170.667h-170.667v85.333h170.667v170.667h85.333v-170.667h170.667zM810.667 832h-597.333c-47.36 0-85.333-37.973-85.333-85.333v-597.333c0-47.128 38.205-85.333 85.333-85.333h597.333c47.128 0 85.333 38.205 85.333 85.333v597.333c0 47.36-38.4 85.333-85.333 85.333z" />
<glyph unicode="&#xe90d;" glyph-name="switch_fields" d="M983.334 766.666h-942.668c-22 0-40-18-40-40v-518.666c0-22 18-40 40-40h942.666c22 0 40 18 40 40v518.666c0.002 22-17.998 40-39.998 40zM480.456 248h-401.122v97.508h401.122v-97.508zM480.456 417.58h-401.122v97.508h401.122v-97.508zM480.456 587.158h-401.122v97.508h401.122v-97.508zM943.334 248h-401.124v97.508h401.122v-97.508zM943.334 417.58h-401.124v97.508h401.122v-97.508zM943.334 587.158h-401.124v97.508h401.122v-97.508z" />
<glyph unicode="&#xe90e;" glyph-name="plus-circle" d="M767.988 396.802h-204.791v-204.791h-102.395v204.791h-204.791v102.395h204.791v204.791h102.395v-204.791h204.791zM512 959.977c-282.756 0-511.977-229.219-511.977-511.977s229.219-511.977 511.977-511.977c282.756 0 511.977 229.219 511.977 511.977s-229.219 511.977-511.977 511.977z" />
<glyph unicode="&#xe90f;" glyph-name="plus" d="M810.667 405.333h-256v-256h-85.333v256h-256v85.333h256v256h85.333v-256h256v-85.333z" />
<glyph unicode="&#xe910;" glyph-name="refresh" d="M753.067 689.067c-61.867 61.867-146.773 100.267-241.067 100.267-188.513 0-341.333-152.82-341.333-341.333s152.82-341.333 341.333-341.333c159.147 0 291.84 108.8 329.813 256h-88.747c-34.987-99.413-129.707-170.667-241.067-170.667-141.385 0-256 114.615-256 256s114.615 256 256 256c70.827 0 133.973-29.44 180.053-75.947l-137.387-137.387h298.667v298.667l-100.267-100.267z" />
<glyph unicode="&#xe911;" glyph-name="ray-start-arrow" d="M981.333 448l-170.667-170.667v128h-519.253c-17.493-49.92-64.853-85.333-120.747-85.333-70.692 0-128 57.308-128 128s57.308 128 128 128c55.893 0 103.253-35.413 120.747-85.333h519.253v128l170.667-170.667z" />
<glyph unicode="&#xe912;" glyph-name="tag-plus" d="M913.493 465.92l-384 384c-15.787 15.787-37.547 24.747-60.16 24.747h-298.667c-47.128 0-85.333-38.205-85.333-85.333v-298.667c0-22.613 8.96-44.373 25.173-60.16l17.493-17.067c38.4 23.040 82.773 34.56 128 34.56 141.385 0 256-114.615 256-256 0-45.227-11.947-89.173-34.987-128l17.067-17.067c15.787-16.213 37.973-25.6 60.587-25.6s44.373 8.96 60.16 25.173l298.667 298.667c16.213 15.787 25.173 37.547 25.173 60.16s-8.96 44.373-25.173 60.587zM234.667 661.333c-35.346 0-64 28.654-64 64s28.654 64 64 64c35.346 0 64-28.654 64-64s-28.654-64-64-64zM426.667 149.333h-128v-128h-85.333v128h-128v85.333h128v128h85.333v-128h128v-85.333z" />
<glyph unicode="&#xe913;" glyph-name="tag" d="M234.667 661.333c-35.346 0-64 28.654-64 64s28.654 64 64 64c35.346 0 64-28.654 64-64s-28.654-64-64-64zM913.493 465.92l-384 384c-15.36 15.36-36.693 24.747-60.16 24.747h-298.667c-47.36 0-85.333-37.973-85.333-85.333v-298.667c0-23.467 9.387-44.8 25.173-60.16l383.573-384c15.787-15.36 37.12-25.173 60.587-25.173s44.8 9.813 60.16 25.173l298.667 298.667c15.787 15.36 25.173 36.693 25.173 60.16 0 23.893-9.813 45.227-25.173 60.587z" />
<glyph unicode="&#xe914;" glyph-name="chevron-double-right" d="M238.507 643.84l60.16 60.16 256-256-256-256-60.16 60.16 195.413 195.84-195.413 195.84zM494.507 643.84l60.16 60.16 256-256-256-256-60.16 60.16 195.413 195.84-195.413 195.84z" />
<glyph unicode="&#xe915;" glyph-name="chevron-down" d="M316.16 593.92l195.84-195.84 195.84 195.84 60.16-60.587-256-256-256 256 60.16 60.587z" />
<glyph unicode="&#xe916;" glyph-name="chevron-left" d="M657.493 252.587l-195.413 195.413 195.413 195.84-60.16 60.16-256-256 256-256 60.16 60.587z" />
<glyph unicode="&#xe917;" glyph-name="chevron-right" d="M366.507 252.587l195.413 195.413-195.413 195.84 60.16 60.16 256-256-256-256-60.16 60.587z" />
<glyph unicode="&#xe918;" glyph-name="chevron-up" d="M316.16 302.507l195.84 195.413 195.84-195.413 60.16 60.16-256 256-256-256 60.16-60.16z" />
<glyph unicode="&#xe919;" glyph-name="closex" d="M810.667 686.507l-60.16 60.16-238.507-238.507-238.507 238.507-60.16-60.16 238.507-238.507-238.507-238.507 60.16-60.16 238.507 238.507 238.507-238.507 60.16 60.16-238.507 238.507 238.507 238.507z" />
<glyph unicode="&#xe91a;" glyph-name="close-circle" d="M512 874.667c235.947 0 426.667-190.72 426.667-426.667s-190.72-426.667-426.667-426.667c-235.947 0-426.667 190.72-426.667 426.667s190.72 426.667 426.667 426.667zM665.173 661.333l-153.173-153.173-153.173 153.173-60.16-60.16 153.173-153.173-153.173-153.173 60.16-60.16 153.173 153.173 153.173-153.173 60.16 60.16-153.173 153.173 153.173 153.173-60.16 60.16z" />
<glyph unicode="&#xe91b;" glyph-name="cursor-move" d="M554.667 704v-213.333h213.333v138.667l181.333-181.333-181.333-181.333v138.667h-213.333v-213.333h138.667l-181.333-181.333-181.333 181.333h138.667v213.333h-213.333v-138.667l-181.333 181.333 181.333 181.333v-138.667h213.333v213.333h-138.667l181.333 181.333 181.333-181.333h-138.667z" />
<glyph unicode="&#xe91c;" glyph-name="delete-forever" d="M256 149.333c0-47.128 38.205-85.333 85.333-85.333h341.333c47.128 0 85.333 38.205 85.333 85.333v512h-512v-512zM360.96 453.12l60.16 60.16 90.88-90.453 90.453 90.453 60.16-60.16-90.453-90.453 90.453-90.453-60.16-60.16-90.453 90.453-90.453-90.453-60.16 60.16 90.453 90.453-90.88 90.453zM661.333 789.333l-42.667 42.667h-213.333l-42.667-42.667h-149.333v-85.333h597.333v85.333h-149.333z" />
<glyph unicode="&#xe91d;" glyph-name="delete" d="M528.114 107.772c19.794 0 35.84 16.046 35.84 35.84v475.032c0 19.794-16.046 35.84-35.84 35.84s-35.84-16.046-35.84-35.84v-475.032c0-19.794 16.046-35.84 35.84-35.84zM381.394 107.772c0.356 0 0.714 0.006 1.072 0.016 19.786 0.58 35.352 17.092 34.77 36.878l-13.972 475.032c-0.582 19.786-17.088 35.348-36.878 34.77-19.786-0.582-35.352-17.092-34.77-36.878l13.972-475.032c0.572-19.426 16.5-34.786 35.806-34.786zM659.79 107.788c0.36-0.010 0.716-0.016 1.072-0.016 19.304 0 35.234 15.362 35.804 34.786l13.97 475.032c0.582 19.786-14.986 36.296-34.77 36.878-0.36 0.010-0.716 0.016-1.072 0.016-19.304 0-35.234-15.36-35.804-34.786l-13.97-475.032c-0.582-19.786 14.986-36.296 34.77-36.878zM829.852 808.146c-19.708 0.764-36.42-14.682-37.164-34.464l-1.14-30.206h71.73l1.038 27.504c0.746 19.78-14.684 36.418-34.464 37.166zM249.568 773.682c-0.746 19.778-17.35 35.212-37.166 34.462-19.78-0.746-35.21-17.386-34.462-37.166l1.038-27.502h71.732l-1.142 30.206zM766.858 89.154c-0.44-11.64-10.6-21.474-22.184-21.474h-447.090c-11.586 0-21.744 9.834-22.184 21.472l-24.692 654.324h-71.73l24.794-657.026c1.88-49.874 43.964-90.45 93.812-90.45h447.088c49.846 0 91.93 40.576 93.812 90.45l24.792 657.026h-71.73l-24.688-654.322zM870.416 815.156h-174.41c-0.426 2.168-1.034 4.33-1.886 6.458l-14.954 37.38c-12.54 31.36-47.448 55.006-81.194 55.006h-153.688c-33.746 0-68.652-23.646-81.194-55.004l-14.954-37.384c-0.85-2.126-1.46-4.288-1.886-6.456h-174.41c-19.794 0-35.84-16.046-35.84-35.84s16.046-35.84 35.84-35.84h7.138l-1.038 27.502c-0.746 19.78 14.684 36.42 34.462 37.166 19.818 0.75 36.42-14.684 37.166-34.462l1.14-30.206h540.838l1.14 30.204c0.746 19.782 17.456 35.226 37.164 34.464 19.78-0.746 35.21-17.386 34.462-37.166l-1.038-27.502h7.138c19.794 0 35.84 16.046 35.84 35.84 0.004 19.794-16.042 35.84-35.836 35.84zM433.54 815.156h-10.784l6.888 17.218c0.61 1.524 2.070 3.224 3.896 4.782 3.296 2.814 7.796 5.164 10.746 5.164h153.688c3.028 0 7.524-2.334 10.8-5.164 1.792-1.546 3.224-3.238 3.842-4.782l6.888-17.218h-185.964z" />
<glyph unicode="&#xe91e;" glyph-name="dots-horizontal" d="M682.667 448c0 47.128 38.205 85.333 85.333 85.333s85.333-38.205 85.333-85.333c0-47.128-38.205-85.333-85.333-85.333s-85.333 38.205-85.333 85.333zM426.667 448c0 47.128 38.205 85.333 85.333 85.333s85.333-38.205 85.333-85.333c0-47.128-38.205-85.333-85.333-85.333s-85.333 38.205-85.333 85.333zM170.667 448c0 47.128 38.205 85.333 85.333 85.333s85.333-38.205 85.333-85.333c0-47.128-38.205-85.333-85.333-85.333s-85.333 38.205-85.333 85.333z" />
<glyph unicode="&#xe91f;" glyph-name="dots-vertical" d="M512 277.333c47.128 0 85.333-38.205 85.333-85.333s-38.205-85.333-85.333-85.333c-47.128 0-85.333 38.205-85.333 85.333s38.205 85.333 85.333 85.333zM512 533.333c47.128 0 85.333-38.205 85.333-85.333s-38.205-85.333-85.333-85.333c-47.128 0-85.333 38.205-85.333 85.333s38.205 85.333 85.333 85.333zM512 789.333c47.128 0 85.333-38.205 85.333-85.333s-38.205-85.333-85.333-85.333c-47.128 0-85.333 38.205-85.333 85.333s38.205 85.333 85.333 85.333z" />
<glyph unicode="&#xe920;" glyph-name="email-open-outline" d="M512 304.64l-341.333 213.333v-325.973h682.667v325.973l-341.333-213.333zM170.667 618.667l341.333-213.333 341.333 213.333-341.333 213.333-341.333-213.333zM938.667 618.667v-426.667c0-47.128-38.205-85.333-85.333-85.333h-682.667c-47.128 0-85.333 38.205-85.333 85.333v426.667c0 31.147 16.64 58.027 41.387 72.96l385.28 241.067 385.28-241.067c24.747-14.933 41.387-41.813 41.387-72.96z" />
<glyph unicode="&#xe921;" glyph-name="email-outline" d="M853.333 789.333h-682.667c-47.128 0-85.333-38.205-85.333-85.333v-512c0-47.128 38.205-85.333 85.333-85.333h682.667c47.128 0 85.333 38.205 85.333 85.333v512c0 47.128-38.205 85.333-85.333 85.333zM853.333 192h-682.667v426.667l341.333-213.333 341.333 213.333v-426.667zM853.333 704l-341.333-213.333-341.333 213.333h682.667z" />
<glyph unicode="&#xe922;" glyph-name="filter-variant" d="M256 405.333h512v85.333h-512zM128 704v-85.333h768v85.333zM426.667 192h170.667v85.333h-170.667v-85.333z" />
<glyph unicode="&#xe923;" glyph-name="filter" d="M128 874.667h768v-85.333h-3.413l-295.253-295.253v-511.573l-170.667 170.667v341.333l-294.827 294.827h-3.84v85.333z" />
<glyph unicode="&#xe924;" glyph-name="folder-plus" d="M426.667 789.333l85.333-85.333h341.333c47.128 0 85.333-38.205 85.333-85.333v-426.667c0-47.128-38.205-85.333-85.333-85.333h-682.667c-47.36 0-85.333 38.4-85.333 85.333v512c0 47.36 37.973 85.333 85.333 85.333h256zM640 576v-128h-128v-85.333h128v-128h85.333v128h128v85.333h-128v128h-85.333z" />
<glyph unicode="&#xe925;" glyph-name="heart" d="M512 49.067l-61.867 56.32c-219.733 199.253-364.8 331.093-364.8 491.947 0 131.84 103.253 234.667 234.667 234.667 74.24 0 145.493-34.56 192-88.747 46.507 54.187 117.76 88.747 192 88.747 131.413 0 234.667-102.827 234.667-234.667 0-160.853-145.067-292.693-364.8-491.947l-61.867-56.32z" />
<glyph unicode="&#xe926;" glyph-name="help-circle-outline" d="M469.333 192h85.333v85.333h-85.333v-85.333zM512 874.667c-235.641 0-426.667-191.025-426.667-426.667s191.025-426.667 426.667-426.667c235.641 0 426.667 191.025 426.667 426.667s-191.025 426.667-426.667 426.667zM512 106.667c-188.16 0-341.333 153.173-341.333 341.333s153.173 341.333 341.333 341.333c188.16 0 341.333-153.173 341.333-341.333s-153.173-341.333-341.333-341.333zM512 704c-94.257 0-170.667-76.41-170.667-170.667h85.333c0 47.128 38.205 85.333 85.333 85.333s85.333-38.205 85.333-85.333c0-85.333-128-74.667-128-213.333h85.333c0 96 128 106.667 128 213.333 0 94.257-76.41 170.667-170.667 170.667z" />
<glyph unicode="&#xe927;" glyph-name="information-outline" d="M469.333 576h85.333v85.333h-85.333zM512 106.667c-188.16 0-341.333 153.173-341.333 341.333s153.173 341.333 341.333 341.333c188.16 0 341.333-153.173 341.333-341.333s-153.173-341.333-341.333-341.333zM512 874.667c-235.641 0-426.667-191.025-426.667-426.667s191.025-426.667 426.667-426.667c235.641 0 426.667 191.025 426.667 426.667s-191.025 426.667-426.667 426.667zM469.333 234.667h85.333v256h-85.333v-256z" />
<glyph unicode="&#xe928;" glyph-name="arrow-right-thick" d="M170.667 533.333v-170.667h384l-149.333-149.333 103.253-103.253 337.92 337.92-337.92 337.92-103.253-103.253 149.333-149.333h-384z" />
<glyph unicode="&#xe929;" glyph-name="arrow-right" d="M170.667 490.667v-85.333h512l-234.667-234.667 60.587-60.587 337.92 337.92-337.92 337.92-60.587-60.587 234.667-234.667h-512z" />
<glyph unicode="&#xe92a;" glyph-name="autorenew" d="M512 704v-128l170.667 170.667-170.667 170.667v-128c-188.513 0-341.333-152.82-341.333-341.333 0-66.987 19.627-129.28 52.907-181.76l62.293 62.293c-19.2 35.413-29.867 76.8-29.867 119.467 0 141.385 114.615 256 256 256zM800.427 629.76l-62.293-62.293c18.773-35.84 29.867-76.8 29.867-119.467 0-141.385-114.615-256-256-256v128l-170.667-170.667 170.667-170.667v128c188.513 0 341.333 152.82 341.333 341.333 0 66.987-19.627 129.28-52.907 181.76z" />
<glyph unicode="&#xe92b;" glyph-name="briefcase" d="M597.333 704h-170.667v85.333h170.667zM853.333 704h-170.667v85.333l-85.333 85.333h-170.667l-85.333-85.333v-85.333h-170.667c-47.36 0-85.333-37.973-85.333-85.333v-469.333c0-47.128 38.205-85.333 85.333-85.333h682.667c47.128 0 85.333 38.205 85.333 85.333v469.333c0 47.36-38.4 85.333-85.333 85.333z" />
<glyph unicode="&#xe92c;" glyph-name="view-horiz" d="M128 789.333h768v-170.667h-768v170.667zM128 533.333h768v-170.667h-768v170.667zM128 277.333h768v-170.667h-768v170.667z" />
<glyph unicode="&#xe92d;" glyph-name="chart-bar" d="M938.667 64h-853.333v768h85.333v-682.667h85.333v384h170.667v-384h85.333v554.667h170.667v-554.667h85.333v213.333h170.667v-298.667z" />
<glyph unicode="&#xe92e;" glyph-name="check-circle" d="M512 874.667c235.641 0 426.667-191.025 426.667-426.667s-191.025-426.667-426.667-426.667c-235.641 0-426.667 191.025-426.667 426.667s191.025 426.667 426.667 426.667zM469.333 256l298.667 298.667-60.16 60.16-238.507-238.080-131.84 131.413-60.16-60.16 192-192z" />
<glyph unicode="&#xe92f;" glyph-name="checkbox-blank-outline" d="M810.667 832h-597.333c-47.36 0-85.333-37.973-85.333-85.333v-597.333c0-47.128 38.205-85.333 85.333-85.333h597.333c47.128 0 85.333 38.205 85.333 85.333v597.333c0 47.36-38.4 85.333-85.333 85.333zM810.667 746.667v-597.333h-597.333v597.333h597.333z" />
<glyph unicode="&#xe930;" glyph-name="checkbox-marked" d="M426.667 234.667l-213.333 213.333 60.16 60.587 153.173-153.173 323.84 323.84 60.16-60.587zM810.667 832h-597.333c-47.36 0-85.333-37.973-85.333-85.333v-597.333c0-47.128 38.205-85.333 85.333-85.333h597.333c47.128 0 85.333 38.205 85.333 85.333v597.333c0 47.36-38.4 85.333-85.333 85.333z" />
<glyph unicode="&#xe931;" glyph-name="chevron-double-left" d="M785.493 643.84l-60.16 60.16-256-256 256-256 60.16 60.16-195.413 195.84 195.413 195.84zM529.493 643.84l-60.16 60.16-256-256 256-256 60.16 60.16-195.413 195.84 195.413 195.84z" />
<glyph unicode="&#xe932;" glyph-name="alert-circle" d="M554.667 405.333h-85.333v256h85.333zM554.667 234.667h-85.333v85.333h85.333zM512 874.667c-235.641 0-426.667-191.025-426.667-426.667s191.025-426.667 426.667-426.667c235.641 0 426.667 191.025 426.667 426.667s-191.025 426.667-426.667 426.667z" />
<glyph unicode="&#xe933;" glyph-name="android" d="M640 746.667h-42.667v42.667h42.667zM426.667 746.667h-42.667v42.667h42.667zM662.613 867.84l55.893 55.893c8.107 8.107 8.107 21.76 0 30.293-8.533 8.107-22.187 8.107-30.293 0l-63.147-63.147c-34.133 16.64-72.533 26.453-113.067 26.453-40.96 0-79.36-9.813-113.493-26.88l-63.573 63.573c-8.107 8.107-21.76 8.107-29.867 0-8.533-8.533-8.533-22.187 0-30.293l55.893-55.893c-63.573-46.933-104.96-121.173-104.96-206.507h512c0 85.333-42.667 160-105.387 206.507zM874.667 618.667c-35.346 0-64-28.654-64-64v-298.667c0-35.346 28.654-64 64-64s64 28.654 64 64v298.667c0 35.346-28.654 64-64 64zM149.333 618.667c-35.346 0-64-28.654-64-64v-298.667c0-35.346 28.654-64 64-64s64 28.654 64 64v298.667c0 35.346-28.654 64-64 64zM256 192c0-23.564 19.103-42.667 42.667-42.667h42.667v-149.333c0-35.346 28.654-64 64-64s64 28.654 64 64v149.333h85.333v-149.333c0-35.346 28.654-64 64-64s64 28.654 64 64v149.333h42.667c23.564 0 42.667 19.103 42.667 42.667v426.667h-512v-426.667z" />
<glyph unicode="&#xe934;" glyph-name="apple" d="M798.293 128c-35.413-52.907-72.96-104.533-130.133-105.387-57.173-1.28-75.52 33.707-140.373 33.707-65.28 0-85.333-32.853-139.52-34.987-55.893-2.133-98.133 56.32-133.973 107.947-72.96 105.387-128.853 299.52-53.76 430.080 37.12 64.853 103.68 105.813 175.787 107.093 54.613 0.853 106.667-37.12 140.373-37.12 33.28 0 96.427 45.653 162.56 38.827 27.733-1.28 105.387-11.093 155.307-84.48-3.84-2.56-92.587-54.613-91.733-162.56 1.28-128.853 113.067-171.947 114.347-172.373-1.28-2.987-17.92-61.44-58.88-120.747zM554.667 810.667c31.147 35.413 82.773 62.293 125.44 64 5.547-49.92-14.507-100.267-44.373-136.107-29.44-36.267-78.080-64.427-125.867-60.587-6.4 49.067 17.493 100.267 44.8 132.693z" />
<glyph unicode="&#xe935;" glyph-name="arrow-all" d="M554.667 490.667h213.333l-64 64 60.587 60.587 167.253-167.253-167.253-167.253-60.587 60.587 64 64h-213.333v-213.333l64 64 60.587-60.587-167.253-167.253-167.253 167.253 60.587 60.587 64-64v213.333h-213.333l64-64-60.587-60.587-167.253 167.253 167.253 167.253 60.587-60.587-64-64h213.333v213.333l-64-64-60.587 60.587 167.253 167.253 167.253-167.253-60.587-60.587-64 64v-213.333z" />
<glyph unicode="&#xe936;" glyph-name="arrow-compress-all" d="M832 828.16l60.16-60.16-192-192h153.173v-85.333h-298.667v298.667h85.333v-153.173l192 192zM892.16 128l-60.16-60.16-192 192v-153.173h-85.333v298.667h298.667v-85.333h-153.173l192-192zM192 828.16l192-192v153.173h85.333v-298.667h-298.667v85.333h153.173l-192 192 60.16 60.16zM131.84 128l192 192h-153.173v85.333h298.667v-298.667h-85.333v153.173l-192-192-60.16 60.16z" />
<glyph unicode="&#xe937;" glyph-name="arrow-expand-all" d="M405.333 401.493l60.16-60.16-192-192h153.173v-85.333h-298.667v298.667h85.333v-153.173l192 192zM465.493 554.667l-60.16-60.16-192 192v-153.173h-85.333v298.667h298.667v-85.333h-153.173l192-192zM618.667 401.493l192-192v153.173h85.333v-298.667h-298.667v85.333h153.173l-192 192 60.16 60.16zM558.507 554.667l192 192h-153.173v85.333h298.667v-298.667h-85.333v153.173l-192-192-60.16 60.16z" />
<glyph unicode="&#xe938;" glyph-name="arrow-left-thick" d="M853.333 533.333v-170.667h-384l149.333-149.333-103.253-103.253-337.92 337.92 337.92 337.92 103.253-103.253-149.333-149.333h384z" />
<glyph unicode="&#xe939;" glyph-name="arrow-left" d="M853.333 490.667v-85.333h-512l234.667-234.667-60.587-60.587-337.92 337.92 337.92 337.92 60.587-60.587-234.667-234.667h512z" />
<glyph unicode="&#xe93a;" glyph-name="alert-circle-outline" d="M469.333 320h85.333v-85.333h-85.333v85.333zM469.333 661.333h85.333v-256h-85.333v256zM512 874.667c-235.947 0-426.667-192-426.667-426.667 0-235.641 191.025-426.667 426.667-426.667s426.667 191.025 426.667 426.667c0 235.641-191.025 426.667-426.667 426.667zM512 106.667c-188.513 0-341.333 152.82-341.333 341.333s152.82 341.333 341.333 341.333c188.513 0 341.333-152.82 341.333-341.333s-152.82-341.333-341.333-341.333z" />
<glyph unicode="&#xe93b;" glyph-name="alarm" d="M512 106.667c-164.949 0-298.667 133.718-298.667 298.667s133.718 298.667 298.667 298.667c164.949 0 298.667-133.718 298.667-298.667s-133.718-298.667-298.667-298.667zM512 789.333c-212.077 0-384-171.923-384-384s171.923-384 384-384c212.077 0 384 171.923 384 384s-171.923 384-384 384zM533.333 618.667h-64v-256l202.667-121.6 32 52.48-170.667 101.12v224zM336.213 815.36l-54.613 65.28-196.267-164.267 55.040-65.28 195.84 164.267zM938.667 715.947l-196.267 164.693-55.040-65.28 196.267-164.693 55.040 65.28z" />
<glyph unicode="&#xe93c;" glyph-name="switch_multiple" d="M961.966 666.5c19.146 0 34.81-15.664 34.81-34.81v-408.878c0-19.146-15.664-34.81-34.81-34.81h-899.42c-19.146 0-34.81 15.664-34.81 34.81v408.878c0 19.146 15.664 34.81 34.81 34.81h899.42zM961.966 696.5h-899.42c-35.736 0-64.81-29.074-64.81-64.81v-408.878c0-35.736 29.074-64.81 64.81-64.81h899.42c35.736 0 64.81 29.074 64.81 64.81v408.878c0 35.736-29.074 64.81-64.81 64.81v0z" />
<glyph unicode="&#xe93d;" glyph-name="minus-circle" d="M725.333 405.333h-426.667v85.333h426.667zM512 874.667c-235.641 0-426.667-191.025-426.667-426.667s191.025-426.667 426.667-426.667c235.641 0 426.667 191.025 426.667 426.667s-191.025 426.667-426.667 426.667z" />
<glyph unicode="&#xe93e;" glyph-name="monitor" d="M896 277.333h-768v512h768zM896 874.667h-768c-47.36 0-85.333-37.973-85.333-85.333v-512c0-47.128 38.205-85.333 85.333-85.333h298.667v-85.333h-85.333v-85.333h341.333v85.333h-85.333v85.333h298.667c47.128 0 85.333 38.205 85.333 85.333v512c0 47.36-38.4 85.333-85.333 85.333z" />
<glyph unicode="&#xe93f;" glyph-name="pencil" d="M883.627 659.627c16.64 16.64 16.64 44.373 0 60.16l-99.84 99.84c-15.787 16.64-43.52 16.64-60.16 0l-78.507-78.080 160-160zM128 224v-160h160l471.893 472.32-160 160-471.893-472.32z" />
<glyph unicode="&#xe940;" glyph-name="export" d="M981.333 448l-170.667 170.667v-128h-384v-85.333h384v-128zM42.667 192v512c0 47.36 38.4 85.333 85.333 85.333h512c47.128 0 85.333-38.205 85.333-85.333v-128h-85.333v128h-512v-512h512v128h85.333v-128c0-47.128-38.205-85.333-85.333-85.333h-512c-47.128 0-85.333 38.205-85.333 85.333z" />
<glyph unicode="&#xe941;" glyph-name="import" d="M597.333 448l-170.667 170.667v-128h-341.333v-85.333h341.333v-128zM853.333 192v512c0 47.36-38.4 85.333-85.333 85.333h-512c-47.128 0-85.333-38.205-85.333-85.333v-128h85.333v128h512v-512h-512v128h-85.333v-128c0-47.128 38.205-85.333 85.333-85.333h512c47.128 0 85.333 38.205 85.333 85.333z" />
<glyph unicode="&#xe942;" glyph-name="heart-outline" d="M516.267 168.533l-4.267-4.267-4.693 4.267c-202.667 183.893-336.64 305.493-336.64 428.8 0 85.333 64 149.333 149.333 149.333 65.707 0 129.707-42.667 152.32-100.693h79.36c22.613 58.027 86.613 100.693 152.32 100.693 85.333 0 149.333-64 149.333-149.333 0-123.307-133.973-244.907-337.067-428.8zM704 832c-74.24 0-145.493-34.56-192-88.747-46.507 54.187-117.76 88.747-192 88.747-131.413 0-234.667-102.827-234.667-234.667 0-160.853 145.067-292.693 364.8-491.947l61.867-56.32 61.867 56.32c219.733 199.253 364.8 331.093 364.8 491.947 0 131.84-103.253 234.667-234.667 234.667z" />
<glyph unicode="&#xe943;" glyph-name="comment-processing-outline" d="M384 21.333c-23.564 0-42.667 19.103-42.667 42.667v128h-170.667c-47.128 0-85.333 38.205-85.333 85.333v512c0 47.36 38.4 85.333 85.333 85.333h682.667c47.128 0 85.333-38.205 85.333-85.333v-512c0-47.128-38.205-85.333-85.333-85.333h-260.267l-157.867-158.293c-8.533-8.107-19.2-12.373-29.867-12.373v0h-21.333zM426.667 277.333v-131.413l131.413 131.413h295.253v512h-682.667v-512h256zM725.333 490.667h-85.333v85.333h85.333v-85.333zM554.667 490.667h-85.333v85.333h85.333v-85.333zM384 490.667h-85.333v85.333h85.333v-85.333z" />
<glyph unicode="&#xe944;" glyph-name="files-clone" d="M917.806 602.924c-22.21 30.292-53.174 65.7-87.178 99.704s-69.412 64.964-99.704 87.178c-51.574 37.82-76.592 42.194-90.924 42.194h-368c-44.114 0-80-35.888-80-80v-736c0-44.112 35.886-80 80-80h608c44.112 0 80 35.888 80 80v496c0 14.332-4.372 39.35-42.194 90.924zM785.374 657.374c30.7-30.7 54.8-58.398 72.58-81.374h-153.954v153.946c22.982-17.78 50.678-41.878 81.374-72.572v0zM896 16c0-8.672-7.328-16-16-16h-608c-8.672 0-16 7.328-16 16v736c0 8.672 7.328 16 16 16 0 0 367.956 0.002 368 0v-224c0-17.672 14.324-32 32-32h224v-496zM602.924 917.804c-51.574 37.822-76.592 42.196-90.924 42.196h-368c-44.112 0-80-35.888-80-80v-736c0-38.632 27.528-70.958 64-78.39v814.39c0 8.672 7.328 16 16 16h486.876c-9.646 7.92-19.028 15.26-27.952 21.804z" />
<glyph unicode="&#xe945;" glyph-name="reports" d="M476.2-44.6c-116.8 0-226.6 45.4-309.2 128s-128 192.4-128 309.2c0 241.2 196.2 437.4 437.2 437.4 22 0 40-18 40-40v-357.2h357.4c22 0 40-18 40-40 0-241.2-196.2-437.4-437.4-437.4zM436.2 747.6c-178.2-20-317.4-171.6-317.4-355 0-197 160.2-357.2 357.4-357.2 183.6 0 335.2 139 355 317.4h-355c-22 0-40 18-40 40v354.8zM947 460h-364.4c-22 0-40 18-40 40v364.4c0 22 18 40 40 40 223 0 404.4-181.4 404.4-404.4 0-22-17.8-40-40-40zM622.6 540h281.8c-18.2 147-135 263.8-281.8 281.8v-281.8z" />
<glyph unicode="&#xe946;" glyph-name="file-zip" d="M917.806 730.924c-22.208 30.292-53.174 65.7-87.178 99.704s-69.412 64.964-99.704 87.178c-51.574 37.82-76.592 42.194-90.924 42.194h-496c-44.112 0-80-35.888-80-80v-864c0-44.112 35.884-80 80-80h736c44.112 0 80 35.888 80 80v624c0 14.332-4.372 39.35-42.194 90.924v0 0zM785.374 785.374c30.7-30.7 54.8-58.398 72.58-81.374h-153.954v153.946c22.98-17.78 50.678-41.878 81.374-72.572v0 0zM896 16c0-8.672-7.328-16-16-16h-736c-8.672 0-16 7.328-16 16v864c0 8.672 7.328 16 16 16 0 0 495.956 0.002 496 0v-224c0-17.672 14.322-32 32-32h224v-624zM256 896h128v-64h-128v64zM384 832h128v-64h-128v64zM256 768h128v-64h-128v64zM384 704h128v-64h-128v64zM256 640h128v-64h-128v64zM384 576h128v-64h-128v64zM256 512h128v-64h-128v64zM384 448h128v-64h-128v64zM256 112c0-26.4 21.6-48 48-48h160c26.4 0 48 21.6 48 48v160c0 26.4-21.6 48-48 48h-80v64h-128v-272zM448 192v-64h-128v64h128z" />
<glyph unicode="&#xe947;" glyph-name="file-text" d="M917.806 730.924c-22.212 30.292-53.174 65.7-87.178 99.704s-69.412 64.964-99.704 87.178c-51.574 37.82-76.592 42.194-90.924 42.194h-496c-44.112 0-80-35.888-80-80v-864c0-44.112 35.888-80 80-80h736c44.112 0 80 35.888 80 80v624c0 14.332-4.372 39.35-42.194 90.924zM785.374 785.374c30.7-30.7 54.8-58.398 72.58-81.374h-153.954v153.946c22.984-17.78 50.678-41.878 81.374-72.572zM896 16c0-8.672-7.328-16-16-16h-736c-8.672 0-16 7.328-16 16v864c0 8.672 7.328 16 16 16 0 0 495.956 0.002 496 0v-224c0-17.672 14.326-32 32-32h224v-624zM736 128h-448c-17.672 0-32 14.326-32 32s14.328 32 32 32h448c17.674 0 32-14.326 32-32s-14.326-32-32-32zM736 256h-448c-17.672 0-32 14.326-32 32s14.328 32 32 32h448c17.674 0 32-14.326 32-32s-14.326-32-32-32zM736 384h-448c-17.672 0-32 14.326-32 32s14.328 32 32 32h448c17.674 0 32-14.326 32-32s-14.326-32-32-32z" />
<glyph unicode="&#xe948;" glyph-name="flag-variant" d="M256 832c23.564 0 42.667-19.103 42.667-42.667v-37.547c45.227 18.773 106.667 37.547 170.667 37.547 128 0 128-85.333 213.333-85.333 128 0 170.667 85.333 170.667 85.333v-341.333c0 0-42.667-85.333-170.667-85.333s-128 85.333-213.333 85.333c-128 0-170.667-85.333-170.667-85.333v-298.667h-85.333v725.333c0 23.564 19.103 42.667 42.667 42.667z" />
<glyph unicode="&#xe949;" glyph-name="campaign" d="M682.667 448v-170.667c0-23.564-19.103-42.667-42.667-42.667-7.253 0-14.080 0-40.107 21.333-26.453 21.333-71.253 64-117.333 85.333-42.667 19.627-86.613 21.333-130.133 21.333l51.627-141.653 1.28-7.68c0-11.782-9.551-21.333-21.333-21.333h-85.333c-9.387 0-17.493 5.973-20.053 14.507l-57.173 156.16h-8.107c-23.564 0-42.667 19.103-42.667 42.667-47.128 0-85.333 38.205-85.333 85.333s38.205 85.333 85.333 85.333c0 23.564 19.103 42.667 42.667 42.667h128c47.36 0 94.72 0 141.227 21.333 46.080 21.333 90.88 64 117.333 85.333 26.027 21.333 32.853 21.333 40.107 21.333 23.564 0 42.667-19.103 42.667-42.667v-170.667c23.564 0 42.667-19.103 42.667-42.667s-19.103-42.667-42.667-42.667zM896 490.667c0-58.88-23.893-112.213-62.293-151.040l-60.587 60.587c23.040 23.040 37.547 55.040 37.547 90.453s-14.507 67.413-37.547 90.453l60.587 60.587c38.4-38.827 62.293-92.16 62.293-151.040z" />
<glyph unicode="&#xe94a;" glyph-name="user" d="M512 789.333c94.257 0 170.667-76.41 170.667-170.667s-76.41-170.667-170.667-170.667c-94.257 0-170.667 76.41-170.667 170.667s76.41 170.667 170.667 170.667zM512 362.667c188.587 0 341.333-76.373 341.333-170.667v-85.333h-682.667v85.333c0 94.293 152.747 170.667 341.333 170.667z" />
<glyph unicode="&#xe94b;" glyph-name="information" d="M554.667 576h-85.333v85.333h85.333zM554.667 234.667h-85.333v256h85.333zM512 874.667c-235.641 0-426.667-191.025-426.667-426.667s191.025-426.667 426.667-426.667c235.641 0 426.667 191.025 426.667 426.667s-191.025 426.667-426.667 426.667z" />
<glyph unicode="&#xe94c;" glyph-name="image" d="M950.101 832h-876.203c-40.661 0-73.899-33.237-73.899-73.899v-620.203c0-40.661 33.237-73.899 73.899-73.899h876.203c40.661 0 73.899 33.237 73.899 73.899v620.203c0 40.661-33.237 73.899-73.899 73.899zM938.667 746.667v-409.003l-225.835 225.835c-8.192 8.192-20.053 13.099-30.933 12.501-11.563-0.213-22.528-5.077-30.421-13.525l-214.4-229.675-151.467 145.92c-13.824 13.355-34.987 15.744-51.541 5.845l-148.736-89.216v351.317h853.333zM85.333 149.333v146.517l164.608 98.773 159.104-153.301c8.235-7.979 19.669-12.288 30.72-11.947 11.435 0.341 22.229 5.205 30.080 13.525l213.845 229.077 254.976-254.976v-67.669h-853.333zM426.667 458.667c-64.725 0-117.333 52.608-117.333 117.333s52.608 117.333 117.333 117.333 117.333-52.608 117.333-117.333-52.608-117.333-117.333-117.333zM426.667 629.333c-29.397 0-53.333-23.936-53.333-53.333s23.936-53.333 53.333-53.333 53.333 23.936 53.333 53.333-23.936 53.333-53.333 53.333z" />
<glyph unicode="&#xe94d;" glyph-name="bell-outline" d="M682.667 234.667v277.333c0 106.667-85.333 192-192 192s-192-85.333-192-192v-277.333h384zM768 277.333l85.333-85.333v-42.667h-725.333v42.667l85.333 85.333v234.667c0 130.987 90.88 240.64 213.333 269.653v29.013c0 35.346 28.654 64 64 64s64-28.654 64-64v-29.013c122.027-29.013 213.333-138.667 213.333-269.653v-234.667zM490.667 21.333c-47.128 0-85.333 38.205-85.333 85.333h170.667c0-47.128-38.205-85.333-85.333-85.333zM852.053 533.333c-6.4 113.067-64.427 213.333-151.467 273.92l61.013 61.013c101.973-77.653 169.387-197.973 175.787-334.933h-85.333zM280.747 807.253c-87.040-60.587-145.067-160.853-152.747-273.92h-85.333c7.68 136.96 75.093 257.28 177.067 334.933l61.013-61.013z" />
<glyph unicode="&#xe94e;" glyph-name="account-multiple" d="M682.667 405.333c-12.373 0-26.453 0-41.387-2.133 49.493-35.84 84.053-83.2 84.053-147.2v-106.667h256v106.667c0 99.413-199.253 149.333-298.667 149.333zM341.333 405.333c-99.413 0-298.667-49.92-298.667-149.333v-106.667h597.333v106.667c0 99.413-199.253 149.333-298.667 149.333zM341.333 490.667c70.692 0 128 57.308 128 128s-57.308 128-128 128c-70.692 0-128-57.308-128-128s57.308-128 128-128zM682.667 490.667c70.692 0 128 57.308 128 128s-57.308 128-128 128c-70.692 0-128-57.308-128-128s57.308-128 128-128z" />
<glyph unicode="&#xe94f;" glyph-name="restore" d="M554.667 832c-212.077 0-384-171.923-384-384h-128l165.973-165.973 2.987-5.973 172.373 171.947h-128c0 164.949 133.718 298.667 298.667 298.667s298.667-133.718 298.667-298.667c0-164.949-133.718-298.667-298.667-298.667-82.347 0-157.013 33.707-210.773 87.893l-60.587-60.587c69.547-69.973 164.693-112.64 271.36-112.64 212.077 0 384 171.923 384 384s-171.923 384-384 384zM512 618.667v-213.333l182.613-108.373 30.72 51.627-149.333 88.747v181.333h-64z" />
<glyph unicode="&#xe950;" glyph-name="account" d="M512 789.333c94.257 0 170.667-76.41 170.667-170.667s-76.41-170.667-170.667-170.667c-94.257 0-170.667 76.41-170.667 170.667s76.41 170.667 170.667 170.667zM512 362.667c188.587 0 341.333-76.373 341.333-170.667v-85.333h-682.667v85.333c0 94.293 152.747 170.667 341.333 170.667z" />
<glyph unicode="&#xe951;" glyph-name="file-document" d="M554.667 576h234.667l-234.667 234.667v-234.667zM256 874.667h341.333l256-256v-512c0-47.128-38.205-85.333-85.333-85.333h-512c-47.36 0-85.333 38.4-85.333 85.333v682.667c0 47.36 37.973 85.333 85.333 85.333zM640 192v85.333h-384v-85.333h384zM768 362.667v85.333h-512v-85.333h512z" />
<glyph unicode="&#xe952;" glyph-name="campaigns" d="M984.8 588.6c-27.4 32-66.4 50.4-106.8 50.4v0 0c-2.8 0-5.4-0.2-8-0.4l-0.6 181.6c-0.2 44-36 80-80.2 80h-0.4l-70.4-0.2c-44.2-0.2-80-36.2-79.8-80.4v-2.2c-30.4-38.6-98.8-70.8-198-92.8-65.4-14.6-126.8-20.8-158.8-23.4-3.6 0.4-7 0.8-10.8 0.8v0h-1.2l-112.6-1.4c-42.6-0.2-83.6-19.2-112.8-51.8-27.4-30.8-42.6-71.2-42.4-113.6l0.4-105.6c0.2-42.4 15.4-82.6 43-113.2 23.6-26 54.8-43.2 88.2-49-0.2-2.4-0.4-4.8-0.4-7.2v-222c0-44.2 36-80.2 80.2-80.2h58.2c44.2 0 80.2 36 80.2 80.2v219.4c94.6-8.2 235.8-35 287.6-103.8l1 0.8v-11.6c0.2-44 36-80 80.2-80h0.4l70.4 0.2c44.2 0.2 80 36.2 79.8 80.4l-0.6 182.8c2.4-0.2 5-0.4 7.6-0.4h0.4c40.6 0.2 79.4 18.8 106.6 51 24.4 29 37.8 66.6 37.8 106 0 39.2-13.6 76.8-38.2 105.6zM82.4 429.8l-0.4 105.6c-0.2 46.8 33.8 85 76 85l102 1.4c3.4-1 7.2-1.4 11-1.4l0.8-275.8c0-0.2 0-0.2-0.2-0.2 0 0 0 0 0 0l-112.8 0.8c0 0-0.2 0-0.2 0-42 0-76.2 37.8-76.2 84.6zM272 38.2c0-0.2-0.2-0.2 0 0l-58.4-0.2c0 0-0.2 0-0.2 0.2v221.8c0 0 0 0.2 0.2 0.2h58.2c0 0 0.2 0 0.2-0.2v-221.8zM452 324.8c-37.4 6.8-72.4 10.6-100.4 13 0.2 2.4 0.4 4.6 0.4 7l-1 277.2c0 2-0.2 4-0.2 6 31.4 4 68.6 10 107 18.4 75.4 16.8 136 39.4 181 67.4l1.4-455.4c-46.8 30-109.8 52.2-188.2 66.4zM791.2 143l-70.4-0.2c-0.2 0-0.2 0-0.2 0.2l-2 676.8c0 0.2 0 0.2 0.2 0.2l70.4 0.2c0.2 0 0.2 0 0.2-0.2l2-676.8c0 0-0.2-0.2-0.2-0.2zM878.4 406v0c-0.2 0-0.2 0-0.2 0.2l-0.4 152.6c0 0.2 0 0.2 0.2 0.2 36 0 65.2-34.2 65.2-76.4 0.2-42.2-28.8-76.4-64.8-76.6z" />
<glyph unicode="&#xe953;" glyph-name="dashboard" d="M511.6 762c237.6 0 430.4-205.2 430.4-458.4 0-66.2-13.2-129-36.8-185.8h-787.2c-23.6 56.8-36.8 119.6-36.8 185.8 0 253.2 192.6 458.4 430.4 458.4zM511.6 842c-69.6 0-137-14.4-200.4-43-61-27.4-115.6-66.6-162.2-116.4-46.4-49.4-82.8-107-108.2-171-26.2-66-39.4-136-39.4-208 0-75.2 14.4-148.2 43-216.6l20.6-49.2h893.6l20.6 49.2c28.6 68.4 43 141.4 43 216.6 0 72-13.2 142-39.4 208-25.4 64-61.8 121.4-108.2 171-46.8 49.8-101.4 89-162.2 116.4-63.8 28.6-131.4 43-200.8 43v0zM550.8 652c0-22.091-17.909-40-40-40s-40 17.909-40 40c0 22.091 17.909 40 40 40s40-17.909 40-40zM830.2 504c0-22.091-17.909-40-40-40s-40 17.909-40 40c0 22.091 17.909 40 40 40s40-17.909 40-40zM274.2 504c0-22.091-17.909-40-40-40s-40 17.909-40 40c0 22.091 17.909 40 40 40s40-17.909 40-40zM220.2 242c0-22.091-17.909-40-40-40s-40 17.909-40 40c0 22.091 17.909 40 40 40s40-17.909 40-40zM882.2 242c0-22.091-17.909-40-40-40s-40 17.909-40 40c0 22.091 17.909 40 40 40s40-17.909 40-40zM628.2 560.8c-0.8 0.8-2 1.2-3.6 0.8-3.8-0.6-9.8-11.6-12.2-14.4-8.8-11-17.6-21.8-26.4-32.8-17.6-21.8-35.2-43.8-53-65.6-35.2-43.8-70.6-87.4-105.8-131.2-1-1.4-2.2-2.6-3.2-4-9-11.2-18.2-22.6-23.8-35.8s-7.2-28.8-1.2-41.8c5.8-12.4 18-21 30.8-25.8 14.4-5.2 31.4-6 44.4 2s19.8 23 25.8 37c14.6 34.6 29.2 69 43.8 103.6 28.2 67 56.4 134 84.8 201 0.8 2.6 1 5.4-0.4 7z" />
<glyph unicode="&#xe954;" glyph-name="list-view" d="M298.667 746.667h597.333v-85.333h-597.333v85.333zM298.667 405.333v85.333h597.333v-85.333h-597.333zM170.667 768c35.346 0 64-28.654 64-64s-28.654-64-64-64c-35.346 0-64 28.654-64 64s28.654 64 64 64zM170.667 512c35.346 0 64-28.654 64-64s-28.654-64-64-64c-35.346 0-64 28.654-64 64s28.654 64 64 64zM298.667 149.333v85.333h597.333v-85.333h-597.333zM170.667 256c35.346 0 64-28.654 64-64s-28.654-64-64-64c-35.346 0-64 28.654-64 64s28.654 64 64 64z" />
<glyph unicode="&#xe955;" glyph-name="card-view" d="M682.667 106.667h170.667v170.667h-170.667zM682.667 362.667h170.667v170.667h-170.667zM426.667 618.667h170.667v170.667h-170.667zM682.667 618.667h170.667v170.667h-170.667zM426.667 362.667h170.667v170.667h-170.667zM170.667 362.667h170.667v170.667h-170.667zM170.667 106.667h170.667v170.667h-170.667zM426.667 106.667h170.667v170.667h-170.667zM170.667 618.667h170.667v170.667h-170.667v-170.667z" />
<glyph unicode="&#xe956;" glyph-name="link-off" d="M85.333 735.147l54.613 54.187 713.387-713.387-54.187-54.613-170.667 170.667h-73.813v73.813l-139.52 139.52h-73.813v73.813l-106.667 107.093c-42.667-31.573-68.267-81.92-68.267-138.24 0-96.427 78.507-174.933 174.933-174.933h128v-81.067h-128c-141.385 0-256 114.615-256 256 0 78.507 35.413 149.333 91.307 195.84l-91.307 91.307zM682.667 704c141.385 0 256-114.615 256-256 0-94.293-51.2-177.067-128-221.44l-59.733 60.587c62.72 26.453 106.667 88.32 106.667 160.853 0 96.853-78.507 174.933-174.933 174.933h-128v81.067h128zM341.333 704h128v-81.067h-54.613l-81.067 81.067h7.68zM682.667 490.667v-85.333h-50.347l-85.333 85.333h135.68z" />
<glyph unicode="&#xe957;" glyph-name="crop-free" d="M810.667 832h-170.667v-85.333h170.667v-170.667h85.333v170.667c0 47.36-38.4 85.333-85.333 85.333zM810.667 149.333h-170.667v-85.333h170.667c47.128 0 85.333 38.205 85.333 85.333v170.667h-85.333zM213.333 320h-85.333v-170.667c0-47.128 38.205-85.333 85.333-85.333h170.667v85.333h-170.667zM128 746.667v-170.667h85.333v170.667h170.667v85.333h-170.667c-47.128 0-85.333-38.205-85.333-85.333z" />
<glyph unicode="&#xe958;" glyph-name="link" d="M682.667 704h-128v-81.067h128c96.427 0 174.933-78.080 174.933-174.933 0-96.613-78.32-174.933-174.933-174.933h-128v-81.067h128c141.385 0 256 114.615 256 256 0 141.653-114.773 256-256 256zM166.4 448c0 96.853 78.507 174.933 174.933 174.933h128v81.067h-128c-141.385 0-256-114.615-256-256s114.615-256 256-256h128v81.067h-128c-96.427 0-174.933 78.507-174.933 174.933zM341.333 405.333h341.333v85.333h-341.333v-85.333z" />
<glyph unicode="&#xe959;" glyph-name="drag-vertical" d="M384 832h85.333v-85.333h-85.333v85.333zM554.667 832h85.333v-85.333h-85.333v85.333zM384 661.333h85.333v-85.333h-85.333v85.333zM554.667 661.333h85.333v-85.333h-85.333v85.333zM384 490.667h85.333v-85.333h-85.333v85.333zM554.667 490.667h85.333v-85.333h-85.333v85.333zM384 320h85.333v-85.333h-85.333v85.333zM554.667 320h85.333v-85.333h-85.333v85.333zM384 149.333h85.333v-85.333h-85.333v85.333zM554.667 149.333h85.333v-85.333h-85.333v85.333z" />
<glyph unicode="&#xe95a;" glyph-name="score" d="M861.867 789.333h-136.533v85.333h-426.667v-85.333h-213.333v-298.667c0-42.667 42.667-85.333 85.333-85.333h136.533c17.067-81.067 59.733-153.6 162.133-166.4v-89.6c-128-8.533-128-55.467-128-110.933v-17.067h341.333v12.8c0 55.467 0 102.4-128 110.933v89.6c106.667 12.8 149.333 85.333 162.133 166.4h136.533c42.667 0 85.333 42.667 85.333 85.333v302.933h-76.8zM170.667 490.667v213.333h128v-213.333c-59.733 0-110.933 0-128 0zM853.333 490.667c-17.067 0-68.267 0-128 0v213.333h128v-213.333z" />
<glyph unicode="&#xe95b;" glyph-name="kanban-view" d="M170.667 64v768h170.667v-768h-170.667zM426.667 64v768h170.667v-768h-170.667zM682.667 64v768h170.667v-768h-170.667z" />
<glyph unicode="&#xe95c;" glyph-name="web" d="M698.027 362.667c3.413 28.16 5.973 56.32 5.973 85.333s-2.56 57.173-5.973 85.333h144.213c6.827-27.307 11.093-55.893 11.093-85.333s-4.267-58.027-11.093-85.333zM622.507 125.44c25.6 47.36 45.227 98.56 58.88 151.893h125.867c-40.96-70.4-106.24-125.013-184.747-151.893zM611.84 362.667h-199.68c-4.267 28.16-6.827 56.32-6.827 85.333s2.56 57.6 6.827 85.333h199.68c3.84-27.733 6.827-56.32 6.827-85.333s-2.987-57.173-6.827-85.333zM512 108.373c-35.413 51.2-64 107.947-81.493 168.96h162.987c-17.493-61.013-46.080-117.76-81.493-168.96zM341.333 618.667h-124.587c40.533 70.827 106.24 125.44 184.32 151.893-25.6-47.36-44.8-98.56-59.733-151.893zM216.747 277.333h124.587c14.933-53.333 34.133-104.533 59.733-151.893-78.080 26.88-143.787 81.493-184.32 151.893zM181.76 362.667c-6.827 27.307-11.093 55.893-11.093 85.333s4.267 58.027 11.093 85.333h144.213c-3.413-28.16-5.973-56.32-5.973-85.333s2.56-57.173 5.973-85.333zM512 788.053c35.413-51.2 64-108.373 81.493-169.387h-162.987c17.493 61.013 46.080 118.187 81.493 169.387zM807.253 618.667h-125.867c-13.653 53.333-33.28 104.533-58.88 151.893 78.507-26.88 143.787-81.067 184.747-151.893zM512 874.667c-235.947 0-426.667-192-426.667-426.667 0-235.641 191.025-426.667 426.667-426.667s426.667 191.025 426.667 426.667c0 235.641-191.025 426.667-426.667 426.667z" />
<glyph unicode="&#xe95d;" glyph-name="clock" d="M512 106.667c188.513 0 341.333 152.82 341.333 341.333s-152.82 341.333-341.333 341.333c-188.513 0-341.333-152.82-341.333-341.333s152.82-341.333 341.333-341.333zM512 874.667c235.641 0 426.667-191.025 426.667-426.667s-191.025-426.667-426.667-426.667c-235.947 0-426.667 192-426.667 426.667 0 235.641 191.025 426.667 426.667 426.667zM533.333 661.333v-224l192-113.92-32-52.48-224 134.4v256h64z" />
<glyph unicode="&#xe95e;" glyph-name="pause-circle-outline" d="M554.667 277.333v341.333h85.333v-341.333h-85.333zM384 277.333v341.333h85.333v-341.333h-85.333zM512 874.667c235.641 0 426.667-191.025 426.667-426.667s-191.025-426.667-426.667-426.667c-235.641 0-426.667 191.025-426.667 426.667s191.025 426.667 426.667 426.667zM512 789.333c-188.513 0-341.333-152.82-341.333-341.333s152.82-341.333 341.333-341.333c188.513 0 341.333 152.82 341.333 341.333s-152.82 341.333-341.333 341.333z" />
<glyph unicode="&#xe95f;" glyph-name="play-circle-outline" d="M512 106.667c-188.16 0-341.333 153.173-341.333 341.333s153.173 341.333 341.333 341.333c188.16 0 341.333-153.173 341.333-341.333s-153.173-341.333-341.333-341.333zM512 874.667c-235.641 0-426.667-191.025-426.667-426.667s191.025-426.667 426.667-426.667c235.641 0 426.667 191.025 426.667 426.667s-191.025 426.667-426.667 426.667zM426.667 256l256 192-256 192v-384z" />
<glyph unicode="&#xe960;" glyph-name="timer-sand" d="M256 874.667h512v-256l-170.667-170.667 170.667-170.667v-256h-512v256l170.667 170.667-170.667 170.667v256zM682.667 256l-170.667 170.667-170.667-170.667v-149.333h341.333v149.333zM512 469.333l170.667 170.667v149.333h-341.333v-149.333l170.667-170.667zM426.667 704h170.667v-32l-85.333-85.333-85.333 85.333v32z" />
<glyph unicode="&#xe961;" glyph-name="check-circle-outline" d="M512 874.667c235.641 0 426.667-191.025 426.667-426.667s-191.025-426.667-426.667-426.667c-235.641 0-426.667 191.025-426.667 426.667s191.025 426.667 426.667 426.667zM512 789.333c-188.513 0-341.333-152.82-341.333-341.333s152.82-341.333 341.333-341.333c188.513 0 341.333 152.82 341.333 341.333s-152.82 341.333-341.333 341.333zM469.333 256l-192 192 60.16 60.16 131.84-131.413 238.507 238.080 60.16-60.16-298.667-298.667z" />
<glyph unicode="&#xe962;" glyph-name="timeline" d="M490.656 800h64v-768h-64v768zM602.656 816c0-44.183-35.817-80-80-80s-80 35.817-80 80c0 44.183 35.817 80 80 80s80-35.817 80-80zM625.056-32h-204.8c-5.312 0-9.6 4.288-9.6 9.6v44.8c0 5.312 4.288 9.6 9.6 9.6h204.8c5.312 0 9.6-4.288 9.6-9.6v-44.8c0-5.312-4.288-9.6-9.6-9.6zM384 672v22.4c0 5.312-4.288 9.6-9.6 9.6h-204.8c-5.312 0-9.6-4.288-9.6-9.6v-108.8c0-5.312 4.288-9.6 9.6-9.6h204.8c5.312 0 9.6 4.288 9.6 9.6v22.4h128v64h-128zM384 320v22.4c0 5.312-4.288 9.6-9.6 9.6h-204.8c-5.312 0-9.6-4.288-9.6-9.6v-108.8c0-5.312 4.288-9.6 9.6-9.6h204.8c5.312 0 9.6 4.288 9.6 9.6v22.4h128v64h-128zM672 544v22.4c0 5.312 4.288 9.6 9.6 9.6h204.8c5.312 0 9.6-4.288 9.6-9.6v-108.8c0-5.312-4.288-9.6-9.6-9.6h-204.8c-5.312 0-9.6 4.288-9.6 9.6v22.4h-128v64h128zM672 192v22.4c0 5.312 4.288 9.6 9.6 9.6h204.8c5.312 0 9.6-4.288 9.6-9.6v-108.8c0-5.312-4.288-9.6-9.6-9.6h-204.8c-5.312 0-9.6 4.288-9.6 9.6v22.4h-128v64h128z" />
<glyph unicode="&#xe963;" glyph-name="search-filter" d="M907.392 490.272c11.648 33.184 18.528 68.512 18.528 105.76 0 185.12-150.080 335.168-335.168 335.168s-335.2-150.048-335.2-335.168c0-83.008 30.432-159.328 80.448-218.112l-13.92-13.92h-40.736l-257.824-257.824 77.344-77.376 257.824 257.824v40.736l13.92 13.92c58.784-50.016 135.104-80.448 218.112-80.448 15.776 0 31.232 1.248 46.368 3.488 32.288-35.776 78.88-58.432 130.88-58.432 97.44 0 176.448 79.008 176.448 176.448 0.032 40.704-13.888 78.080-37.024 107.936zM590.72 363.968c-128.928 0-232.032 103.136-232.032 232.032s103.136 232.032 232.032 232.032 232.032-103.136 232.032-232.032c0-15.328-1.792-30.144-4.768-44.512-15.872 4.672-32.608 7.296-50.016 7.296-97.44 0-176.448-79.008-176.448-176.448 0-6.176 0.32-12.256 0.928-18.24-0.544 0-1.12-0.128-1.728-0.128zM768 266.208c-64.128 0-116.128 52-116.128 116.128s52 116.128 116.128 116.128 116.128-52 116.128-116.128c0-64.128-52-116.128-116.128-116.128zM816.608 446.080h-97.216c-0.096 0-0.32 0-0.544-0.352s-0.192-0.736-0.16-0.832l0.064-0.096 34.816-67.392v-58.016c0-0.192 0.192-0.48 0.48-0.64 0.256-0.16 0.48-0.16 0.608-0.128l25.824 14.176c0.224 0.128 0.416 0.48 0.448 0.768v43.776l36.352 67.456c0.096 0.192 0.032 0.576-0.16 0.864-0.16 0.288-0.416 0.416-0.512 0.416z" />
<glyph unicode="&#xe964;" glyph-name="addressbook" d="M848.736 790.816c0.96 0 1.952 0 2.912 0h43.648c23.296 0 42.688 19.392 42.688 42.688s-19.392 42.688-42.688 42.688h-43.648c-0.96 0-1.952 0-2.912 0v-85.376zM848.736 669.536c0.96 0 1.952 0 2.912 0h43.648c23.296 0 42.688 19.392 42.688 42.688s-19.392 42.688-42.688 42.688h-43.648c-0.96 0-1.952 0-2.912 0v-85.376zM848.736 546.304c0.96 0 1.952 0 2.912 0h43.648c23.296 0 42.688 19.392 42.688 42.688s-19.392 42.688-42.688 42.688h-43.648c-0.96 0-1.952 0-2.912 0v-85.376zM848.736 504.576v-490.976h-686.976v34.944h631.68c9.696 0 17.472 7.776 17.472 17.472v818.912c0 9.696-7.776 17.472-17.472 17.472h-660.768c-9.696 0-17.472-7.776-17.472-17.472v-817.952c0-0.96 0-1.952 0-1.952v-73.728c0-12.608 10.688-23.296 23.296-23.296h733.536c12.608 0 23.296 10.688 23.296 23.296v514.24h-46.56v-0.96zM479.072 687.008c53.376 0 96.064-42.688 96.064-96.064s-42.688-96.064-96.064-96.064-96.064 42.688-96.064 96.064 43.648 96.064 96.064 96.064zM306.336 364.864c0 46.56 37.856 83.456 83.456 83.456h177.568c46.56 0 83.456-36.864 83.456-83.456v-77.632h-344.48v77.632z" />
<glyph unicode="&#xe965;" glyph-name="add-filter" d="M46.507 874.667v-85.333l294.827-294.827v-341.333l170.667-170.667v511.573l295.253 295.253v85.333zM938.667 234.667h-128v128h-85.333v-128h-128v-85.333h128v-128h85.333v128h128z" />
<glyph unicode="&#xe966;" glyph-name="radiobox-blank" d="M512 106.667c-188.513 0-341.333 152.82-341.333 341.333s152.82 341.333 341.333 341.333c188.513 0 341.333-152.82 341.333-341.333s-152.82-341.333-341.333-341.333zM512 874.667c-235.641 0-426.667-191.025-426.667-426.667s191.025-426.667 426.667-426.667c235.641 0 426.667 191.025 426.667 426.667s-191.025 426.667-426.667 426.667z" />
<glyph unicode="&#xe967;" glyph-name="radiobox-marked" d="M512 106.667c-188.513 0-341.333 152.82-341.333 341.333s152.82 341.333 341.333 341.333c188.513 0 341.333-152.82 341.333-341.333s-152.82-341.333-341.333-341.333zM512 874.667c-235.641 0-426.667-191.025-426.667-426.667s191.025-426.667 426.667-426.667c235.641 0 426.667 191.025 426.667 426.667s-191.025 426.667-426.667 426.667zM512 661.333c-117.821 0-213.333-95.513-213.333-213.333s95.513-213.333 213.333-213.333c117.821 0 213.333 95.513 213.333 213.333s-95.513 213.333-213.333 213.333z" />
<glyph unicode="&#xe968;" glyph-name="account-box" d="M256 234.667c0 85.333 170.667 132.267 256 132.267s256-46.933 256-132.267v-42.667h-512zM640 576c0-70.692-57.308-128-128-128s-128 57.308-128 128c0 70.692 57.308 128 128 128s128-57.308 128-128zM128 746.667v-597.333c0-47.128 38.205-85.333 85.333-85.333h597.333c47.128 0 85.333 38.205 85.333 85.333v597.333c0 47.128-38.205 85.333-85.333 85.333h-597.333c-47.36 0-85.333-38.4-85.333-85.333z" />
<glyph unicode="&#xe969;" glyph-name="twitter-box" d="M896 960h-768c-70.692 0-128-57.308-128-128v-768c0-70.692 57.308-128 128-128h768c70.692 0 128 57.308 128 128v768c0 70.692-57.308 128-128 128zM749.12 569.6c0-5.12 0-10.56 0-15.68-0.063-192.236-155.915-348.050-348.16-348.050-69.491 0-134.228 20.359-188.57 55.438 10.060-1.909 20.118-2.526 30.32-2.526 57.614 0 110.634 19.672 152.708 52.665-53.854 0.701-98.712 35.688-114.532 83.847 6.629-0.506 14.533-1.291 22.62-1.291 11.564 0 22.752 1.606 33.355 4.606-57.257 11.509-99.040 60.762-99.101 119.785v0.007c15.955-9.071 34.933-14.683 55.161-15.355-32.923 22.284-54.422 59.632-54.422 102 0 23.311 6.508 45.102 17.806 63.655 60.28-74.73 149.92-123.213 250.999-128.505-1.158 8.28-2.312 17.828-2.312 27.644 0 67.688 54.872 122.56 122.56 122.56 35.149 0 66.842-14.796 89.19-38.499 29.385 5.862 55.433 16.184 78.927 30.319-10.588-29.496-29.59-53.062-54.328-68.152 25.568 2.815 49.353 9.578 71.4 19.514-18.568-25.523-39.166-46.529-62.869-63.47z" />
<glyph unicode="&#xe96a;" glyph-name="linkedin-box" d="M539.2 489.92v0 0zM896 960h-768c-70.692 0-128-57.308-128-128v-768c0-70.692 57.308-128 128-128h768c70.692 0 128 57.308 128 128v768c0 70.692-57.308 128-128 128zM349.12 175.36h-122.24v368.64h122.24zM288 593.6v0c-35.003 0.452-63.205 28.932-63.205 64 0 35.349 28.656 64.005 64.005 64.005 0.281 0 0.562-0.002 0.843-0.005 35.304 0 63.957-28.653 63.957-64s-28.654-64-64-64zM790.4 175.36h-122.56v196.8c0 49.6-17.6 83.2-62.080 83.2-0.258 0.004-0.563 0.006-0.868 0.006-29.027 0-53.735-18.492-62.986-44.339-2.833-8.275-4.384-17.271-4.384-26.631 0-1.265 0.028-2.523 0.084-3.774l-0.006-205.262h-121.6s2.56 333.44 0 368.64h122.56v-52.16c21.403 36.662 60.555 60.904 105.369 60.904 1.77 0 3.53-0.038 5.281-0.113 80.39 0.008 140.55-52.472 140.55-165.752z" />
<glyph unicode="&#xe96b;" glyph-name="close-box" d="M810.667 832h-597.333c-47.128 0-85.333-38.205-85.333-85.333v-597.333c0-47.128 38.205-85.333 85.333-85.333h597.333c47.128 0 85.333 38.205 85.333 85.333v597.333c0 47.128-38.205 85.333-85.333 85.333zM665.6 234.667l-153.6 153.6-153.6-153.6-59.733 59.733 153.6 153.6-153.6 153.6 59.733 59.733 153.6-153.6 153.6 153.6 59.733-59.733-153.6-153.6 153.6-153.6-59.733-59.733z" />
<glyph unicode="&#xe96c;" glyph-name="rss" d="M263.68 292.693c51.37 0 93.013-41.643 93.013-93.013 0-50.347-41.813-93.013-93.013-93.013-50.347 0-93.013 42.667-93.013 93.013 0 51.37 41.643 93.013 93.013 93.013zM170.667 770.56c366.658 0 663.893-297.235 663.893-663.893h-120.747c0 299.972-243.175 543.147-543.147 543.147v120.747zM170.667 529.067c233.285 0 422.4-189.115 422.4-422.4h-120.747c0 166.599-135.055 301.653-301.653 301.653v120.747z" />
<glyph unicode="&#xe96d;" glyph-name="tumblr-box" d="M896 960h-768c-70.692 0-128-57.308-128-128v-768c0-70.692 57.308-128 128-128h768c70.692 0 128 57.308 128 128v768c0 70.692-57.308 128-128 128zM691.2 150.080c-31.138-10.436-67.067-17.017-104.354-18.224-1.241-0.020-1.992-0.023-2.744-0.023-27.802 0-54.73 3.74-80.31 10.744-57.457 11.244-102.181 61.876-104.743 123.399l-0.009 9.545c0 4.16 0 84.48 0 240.32h-64v111.040c2.461-0.288 5.311-0.452 8.201-0.452 11.055 0 21.549 2.406 30.985 6.723 42.662 18.342 73.613 57.804 79.783 105.058 0.301 3.608 0.986 6.326 2.056 8.841-0.070 0.109-0.073 0.437-0.073 0.765 0 5.866 1.059 11.484 2.997 16.674l88.532-0.329v-137.6h141.44v-110.72h-143.36v-173.12c0.132-17.735 1.873-34.977 5.084-51.696 1.281-2.504 3.336-6.209 5.871-9.526 13.744-13.35 32.64-21.645 53.474-21.645 9.255 0 18.128 1.637 26.345 4.638l54.506 16.15z" />
<glyph unicode="&#xe96e;" glyph-name="close-box-outline" d="M810.667 832h-597.333c-47.128 0-85.333-38.205-85.333-85.333v-597.333c0-47.128 38.205-85.333 85.333-85.333h597.333c47.128 0 85.333 38.205 85.333 85.333v597.333c0 47.128-38.205 85.333-85.333 85.333zM810.667 149.333h-597.333v597.333h597.333v-597.333zM725.333 601.6l-153.6-153.6 153.6-153.6-59.733-59.733-153.6 153.6-153.6-153.6-59.733 59.733 153.6 153.6-153.6 153.6 59.733 59.733 153.6-153.6 153.6 153.6 59.733-59.733z" />
<glyph unicode="&#xe96f;" glyph-name="no-delete" d="M488.614 145.772c19.794 0 35.84 16.046 35.84 35.84v475.032c0 19.794-16.046 35.84-35.84 35.84s-35.84-16.046-35.84-35.84v-475.032c0-19.794 16.046-35.84 35.84-35.84zM341.894 145.772c0.356 0 0.714 0.006 1.072 0.016 19.786 0.58 35.352 17.092 34.77 36.878l-13.972 475.032c-0.582 19.786-17.088 35.348-36.878 34.77-19.786-0.582-35.352-17.092-34.77-36.878l13.972-475.032c0.572-19.426 16.5-34.786 35.806-34.786zM622.29 296.012c0.36-0.008 0.716-0.012 1.072-0.012 19.304 0 35.234 11.14 35.804 25.228l13.97 344.5c0.582 14.348-14.986 26.322-34.77 26.744-0.36 0.008-0.716 0.012-1.072 0.012-19.304 0-35.234-11.14-35.804-25.228l-13.97-344.5c-0.584-14.35 14.984-26.324 34.77-26.744zM790.352 846.146c-19.708 0.764-36.42-14.682-37.164-34.464l-1.14-30.206h71.73l1.038 27.504c0.746 19.78-14.684 36.418-34.464 37.166zM210.068 811.682c-0.746 19.778-17.35 35.212-37.166 34.462-19.78-0.746-35.21-17.386-34.462-37.166l1.038-27.502h71.732l-1.142 30.206zM830.916 853.156h-174.41c-0.426 2.168-1.034 4.33-1.886 6.458l-14.954 37.38c-12.54 31.36-47.448 55.006-81.194 55.006h-153.688c-33.746 0-68.652-23.646-81.194-55.004l-14.954-37.384c-0.85-2.126-1.46-4.288-1.886-6.456h-174.41c-19.794 0-35.84-16.046-35.84-35.84s16.046-35.84 35.84-35.84h7.138l-1.038 27.502c-0.746 19.78 14.684 36.42 34.462 37.166 19.818 0.75 36.42-14.684 37.166-34.462l1.14-30.206h540.838l1.14 30.204c0.746 19.782 17.456 35.226 37.164 34.464 19.78-0.746 35.21-17.386 34.462-37.166l-1.038-27.502h7.138c19.794 0 35.84 16.046 35.84 35.84 0.004 19.794-16.042 35.84-35.836 35.84zM394.040 853.156h-10.784l6.888 17.218c0.61 1.524 2.070 3.224 3.896 4.782 3.296 2.814 7.796 5.164 10.746 5.164h153.688c3.028 0 7.524-2.334 10.8-5.164 1.792-1.546 3.224-3.238 3.842-4.782l6.884-17.218h-185.96zM762.37 317.704c-102.704 0-185.964-83.258-185.964-185.964s83.258-185.964 185.964-185.964 185.964 83.258 185.964 185.964-83.258 185.964-185.964 185.964zM762.37 12.876c-65.646 0-118.864 53.216-118.864 118.864 0 65.646 53.216 118.864 118.864 118.864s118.864-53.216 118.864-118.864c0-65.646-53.216-118.864-118.864-118.864zM759.536 334.704c19.344 0 37.998-2.956 55.536-8.438l17.706 469.21h-71.73l-17.412-461.456c5.242 0.444 10.544 0.684 15.9 0.684zM557.838 105.68h-308.754c-11.586 0-21.744 9.834-22.184 21.472l-24.69 654.324h-71.732l24.794-657.026c1.882-49.874 43.964-90.45 93.812-90.45h336.12c-13.754 21.3-23.27 45.59-27.366 71.68zM838.976 89.812l-41.532 42.456 40.914 42.94-35.806 34.118-39.714-41.682-41.716 42.644-35.356-34.586 42.932-43.888-42.404-44.506 35.808-34.116 41.204 43.246 40.314-41.212z" />
<glyph unicode="&#xe970;" glyph-name="no-edit" d="M114 225.562v-175.562h175.562l122.552 122.552c-5.36 17.64-8.252 36.354-8.252 55.746 0 105.762 85.738 191.5 191.5 191.5 19.392 0 38.106-2.892 55.746-8.252l106.62 106.62-175.562 175.562-468.166-468.166zM896.306 722.756l-109.55 109.55c-17.322 18.258-47.754 18.258-66.012 0l-91.76-91.76 175.562-175.562 91.76 91.76c18.258 18.258 18.258 48.69 0 66.012zM594.526 380.188c-83.424 0-151.054-67.63-151.054-151.054s67.63-151.054 151.054-151.054c83.424 0 151.054 67.63 151.054 151.054s-67.628 151.054-151.054 151.054zM594.526 117.64c-61.576 0-111.492 49.918-111.492 111.492 0 61.576 49.918 111.492 111.492 111.492s111.492-49.918 111.492-111.492-49.916-111.492-111.492-111.492zM656.248 264.442l-29.084 27.712-32.258-33.858-33.884 34.64-28.718-28.094 34.872-35.648-34.444-36.152 29.086-27.712 33.466 35.128 32.748-33.474 28.718 28.092-33.734 34.486z" />
<glyph unicode="&#xe971;" glyph-name="coupon" d="M489.158 422.858l-25.646-37.484c21.702-16.438 49.322-27.62 77.598-31.234v-33.21h34.194v32.55c41.428 4.274 69.706 27.948 69.706 64.774v0.658c0 36.826-21.372 56.882-71.352 70.364v49.978c13.482-3.616 27.62-10.522 40.772-19.4l22.030 38.47c-18.084 12.494-37.814 21.044-61.158 24.002v20.056h-34.194v-19.070c-41.43-4.274-69.050-28.276-69.050-64.446v-0.658c0-39.128 23.344-56.882 70.692-69.706v-52.28c-19.396 3.948-35.836 13.154-53.592 26.636zM573.66 440.612c17.758-6.576 23.346-13.48 23.346-24.332v-0.658c0-11.836-7.892-18.742-23.346-21.044v46.034zM520.066 521.168v0.658c0 10.522 6.576 18.414 22.688 20.386v-44.716c-18.084 6.576-22.688 13.152-22.688 23.672zM310.54 185.23c-13.38 2.694-27.282 0.090-38.806-7.152l-70.43 105.928c83.468 155.334 90.026 197.396 86.312 208.58-0.936 2.82-2.518 3.908-3.378 4.304l-3.388 1.566-119.718-188.524 5.828 25.62-103.806 157.434-3.132-1.086c-0.762-0.264-2.65-1.192-3.76-4.106-6.75-17.746 24.548-90.218 88.142-204.202l-67.004-105.512c-23.984 9.984-52.294 0.94-65.85-21.626-7.31-12.116-9.45-26.376-6.022-40.16 3.43-13.794 12.010-25.406 24.156-32.694 8.356-5.024 17.718-7.6 27.234-7.6 4.314 0 8.662 0.528 12.96 1.6 13.778 3.434 25.38 12.010 32.666 24.144 11.58 19.238 9.618 43.896-4.534 61.088l23.418 38.962c12.788 21.256 29.522 22.098 30.198 22.12l0.768 0.086c9.162 1.892 19.232 10.85 29.926 26.62 3.42 5.042 6.33 9.936 8.536 13.868-2.146-8.834-5.378-19.518-9.96-28.32l-1.030-1.978 1.038-1.976c3.124-5.946 8.29-9.294 15.352-9.946l0.362-0.018c0.706-0.010 17.428-0.492 30.672-21.498l26.346-41.774c-2.712-4.87-4.612-10-5.658-15.266-2.822-13.87-0.062-28.020 7.772-39.842 7.844-11.836 19.818-19.906 33.714-22.718 3.544-0.72 7.106-1.076 10.642-1.076 10.306 0 20.402 3.024 29.21 8.862 11.846 7.852 19.916 19.834 22.722 33.732 2.816 13.872 0.044 28.028-7.804 39.86-7.85 11.836-19.816 19.896-33.694 22.7zM80.37 115.072c-3.732-6.214-9.682-10.606-16.75-12.366-7.066-1.762-14.38-0.672-20.59 3.062-12.858 7.726-17.034 24.494-9.31 37.378 7.738 12.844 24.482 16.998 37.33 9.26 6.226-3.736 10.626-9.684 12.386-16.746 1.762-7.056 0.674-14.368-3.066-20.588zM174.844 277.788c-0.426-0.708-1.102-1.206-1.904-1.404-0.796-0.192-1.604-0.066-2.326 0.374-1.482 0.89-1.954 2.75-1.076 4.25 0.898 1.45 2.798 1.928 4.236 1.064 1.492-0.896 1.956-2.786 1.070-4.284zM326.696 127.794c-3.002-14.7-17.402-24.23-32.080-21.286-14.692 2.994-24.254 17.384-21.318 32.064 3 14.72 17.406 24.282 32.1 21.304 14.712-3 24.266-17.396 21.298-32.082zM333.446 752h117.43v-85.298h-117.43v85.298zM460.792 258.796h117.43v-85.298h-117.43v85.298zM625.194 258.796h117.43v-85.298h-117.43v85.298zM497.846 752h117.43v-85.298h-117.43v85.298zM249.42 666.702h37.054v85.298h-37.054c-43.936 0-84.268-25.868-102.746-65.902l77.444-35.75c4.586 9.934 14.518 16.354 25.302 16.354zM136.312 622.19h85.298v-117.43h-85.298v117.43zM934.834 501.112h85.298v-117.43h-85.298v117.43zM934.834 286.606c0-8.94-4.444-17.43-11.884-22.714l49.366-69.558c29.94 21.25 47.816 55.744 47.816 92.272v50.104h-85.298v-50.104zM662.25 752h117.428v-85.298h-117.428v85.298zM1012.096 680.702l-79.204-31.664c1.29-3.224 1.942-6.636 1.942-10.144v-90.81h85.298v90.81c0 14.402-2.704 28.468-8.036 41.808zM789.594 258.796h117.43v-85.298h-117.43v85.298zM907.024 752h-80.374v-85.298h80.374c4.922 0 9.576-1.26 13.83-3.746l43.024 73.652c-17.236 10.070-36.896 15.392-56.854 15.392zM296.392 214.434c1.684 0.112 3.376 0.19 5.088 0.19 29.346 0 54.774-16.71 67.336-41.124h45.004v85.298h-117.43v-44.364z" />
<glyph unicode="&#xe972;" glyph-name="library" d="M940.23 852h-856.46c-46.19 0-83.77-37.58-83.77-83.77v-636.46c0-25.932 11.846-49.146 30.408-64.524 1.802-2.136 3.84-4.126 6.144-5.904 5.078-3.922 10.804-6.402 16.698-7.56 9.464-3.716 19.752-5.782 30.52-5.782h856.46c46.19 0 83.77 37.58 83.77 83.77v636.46c0 46.19-37.58 83.77-83.77 83.77zM83.77 772h856.46c2.074 0 3.77-1.696 3.77-3.77v-584.464l-295.56 321.314c-7.878 8.564-19.060 13.266-30.73 12.9-11.632-0.376-22.524-5.798-29.834-14.856l-156.592-193.992-89.508 127.934c-7.294 10.426-19.112 16.76-31.832 17.060-12.746 0.296-24.826-5.47-32.6-15.54l-197.344-255.54v585.184c0 2.074 1.696 3.77 3.77 3.77zM886.598 128h-748.030l168.842 218.634 88.816-126.944c7.208-10.302 18.838-16.616 31.402-17.046 12.554-0.43 24.6 5.070 32.498 14.852l160.852 199.27 265.62-288.766zM460 614c0-65.17-52.83-118-118-118s-118 52.83-118 118c0 65.17 52.83 118 118 118s118-52.83 118-118z" />
<glyph unicode="&#xe973;" glyph-name="leads" d="M1018.8 414.4l-33 136.2c-2.6 10.8-9.6 20-19.2 25.4s-21.2 6.6-31.8 3.2l-145.8-46.6c-21-6.8-32.6-29.2-26-50.2 6.8-21 29.2-32.6 50.2-26l55.6 17.8c-28-60.6-56.8-122.6-76.6-164-17.8 21.6-39.8 48.8-60 74.2-8 10-20.4 15.6-33.4 15-12.8-0.6-24.6-7.4-31.6-18.4l-45.8-71.2-4.8 16c7.4 9.4 13.2 18.2 18.2 26.6 20 33 32 67.4 40 94.2 26.4 12.2 51.4 37.6 66.2 68.6 15.4 31.8 17.2 63.2 5.6 88.6-6.8 15-17.8 25.2-30.6 31.4 2 25.2 2.6 35.8 3.2 49 0.4 8.2 0.8 17.4 1.8 31.8 3.8 60-17 119-56.8 161.8-29.8 31.8-84.8 69.8-177 70-82.4 0.2-136.8-34.8-168-64-38-35.8-62-83.6-64.2-127.6-2-39.4-1.2-61.2 3-122.2-11.4-6.4-21.2-16.4-27.8-30.6-10.8-23.6-9.6-53 3.6-82.6 14-31.6 38.4-58.4 65-72.6 5.6-24.6 14.2-50 24.8-73.2 9.2-19.8 21-40.8 31.4-56.4l-14.4-61.6-180.6-77.2c-3.8-1.6-38.6-16.4-73.6-39.8-56-37.8-84.6-78.8-84.4-122 0-23 18.6-41.6 41.8-41.6 0 0 0 0 0 0l882.6 0.8c23 0 41.6 18.8 41.6 41.8 0 43.2-28.8 84.2-85.2 122-34.2 22.8-68 37.4-73.2 39.6l-137 60.8 32 49.8c4.6-5.6 9.2-11.4 14-17.2 14.4-17.6 26-31.8 34.8-42 18.6-22 28-33 47.8-33 25 0 35 19.4 41.6 32.2 3.4 6.8 8.2 16.2 14.2 28.8 10 20.6 23.4 49.2 40.2 85 13.4 28.4 26.6 57.2 37 79.6l7-29c4.4-18.2 20.8-30.6 38.8-30.6 3.2 0 6.4 0.4 9.4 1.2 21.4 5 34.6 26.8 29.4 48.2zM132.4 70.2c29.4 19.8 60 32.6 60.2 32.8 0.2 0 0.4 0.2 0.4 0.2l200.2 85.6c12.2 5.2 21.2 16 24.2 28.8l23.6 101c3.2 13.8-0.8 28.2-10.6 38.4-3.6 4.4-18 25.6-30.6 53.2-10 21.6-17.8 46.6-21.6 68.6 0 0.2 0 0.2 0 0.4-0.8 4.6-2 8.2-2.8 10.6-0.2 0.4-0.2 0.8-0.4 1.2-4.2 15.6-17.2 27.2-33 30-0.6 0.2-1.4 0.2-2 0.4-4.6 1.8-14.4 9-23.2 22-3.6 5.4-6 10.4-7.6 14.6 6.8 1 13.2 3.8 18.8 8 11.2 8.4 17.4 22 16.4 36-6.2 89.8-7.4 108.4-5.4 150.2 2 38 48.8 112.4 148.2 112.4 0.2 0 0.2 0 0.4 0 49.4-0.2 89.6-15.2 116.2-43.6 24.4-26 37-62.2 34.6-99.4-1-14.8-1.4-24.4-1.8-32.6-1-18.6-1.6-30.8-6.2-85.8-1.2-13.8 4.6-27.4 15.4-36.2 6.8-5.4 15-8.6 23.4-9.2-1.4-4.2-3.8-9.2-7.4-14.6-8.2-12.6-17.4-19-21.2-20.6-1-0.2-2.4-0.2-3.4-0.4-17-1.8-31.2-14-35.8-30.6-6.6-24.8-16.8-62.2-37-95.4-8.2-13.6-14.2-21.4-23-30-12-11.8-15.4-29-10-43.8l31.4-104.8-101-157.2-343-0.4c3.6 3.2 8.4 6.6 13.6 10.2zM776 103.8c0.4-0.2 0.8-0.4 1-0.4 0.4-0.2 30.8-12.8 60.2-32.6 5.2-3.6 10-7 14.2-10.2l-295.4-0.2 70.6 110 149.4-66.6z" />
<glyph unicode="&#xe974;" glyph-name="inbox-arrow-down" d="M682.667 533.333h-85.333v128h-170.667v-128h-85.333l170.667-170.667zM810.667 320h-170.667c0-70.692-57.308-128-128-128s-128 57.308-128 128h-170.667v426.667h597.333zM810.667 832h-597.333c-47.36 0-85.333-38.4-85.333-85.333v-597.333c0-47.128 38.205-85.333 85.333-85.333h597.333c47.128 0 85.333 38.205 85.333 85.333v597.333c0 47.128-38.205 85.333-85.333 85.333z" />
<glyph unicode="&#xe975;" glyph-name="settings" d="M512 240c-92.8 0-176 60.8-201.6 153.6-12.8 54.4-6.4 108.8 22.4 156.8s73.6 80 128 96c112 28.8 224-38.4 252.8-147.2 0 0 0 0 0 0 12.8-54.4 6.4-108.8-22.4-156.8s-73.6-80-128-96c-16-3.2-35.2-6.4-51.2-6.4zM512 569.6c-9.6 0-19.2 0-32-3.2-32-9.6-57.6-28.8-73.6-57.6s-22.4-60.8-12.8-92.8c16-64 83.2-105.6 150.4-86.4 32 9.6 57.6 28.8 73.6 57.6s22.4 60.8 12.8 92.8v0c-12.8 54.4-64 89.6-118.4 89.6v0zM547.2-64c-38.4 0-73.6 25.6-83.2 64l-12.8 44.8c-19.2 3.2-41.6 6.4-60.8 12.8-9.6 3.2-19.2 6.4-28.8 9.6l-32-32c-32-35.2-89.6-35.2-121.6 0l-105.6 105.6c-16 16-25.6 38.4-25.6 60.8s9.6 44.8 25.6 60.8l32 32c-6.4 16-12.8 35.2-16 51.2s-6.4 35.2-9.6 54.4l-44.8 12.8c-22.4 6.4-41.6 22.4-51.2 41.6s-12.8 44.8-6.4 67.2l41.6 140.8c12.8 44.8 60.8 70.4 105.6 57.6l44.8-12.8c19.2 25.6 41.6 44.8 67.2 64l-16 44.8c-6.4 22.4-3.2 44.8 9.6 64s32 35.2 51.2 38.4l144 38.4c44.8 12.8 92.8-16 105.6-60.8l12.8-44.8c32-3.2 60.8-12.8 89.6-25.6l32 32c32 35.2 89.6 35.2 121.6 0l105.6-105.6c16-16 25.6-38.4 25.6-60.8s-9.6-44.8-25.6-60.8l-32-32c6.4-16 12.8-35.2 16-51.2 3.2-19.2 9.6-35.2 9.6-54.4l44.8-12.8c22.4-6.4 41.6-22.4 51.2-41.6s12.8-44.8 6.4-67.2l-41.6-140.8c-12.8-44.8-60.8-70.4-105.6-57.6l-44.8 12.8c0 0-3.2-3.2-3.2-3.2-19.2-22.4-41.6-44.8-64-60.8l12.8-44.8c6.4-22.4 3.2-44.8-9.6-64s-28.8-35.2-51.2-38.4l-144-38.4c-6.4 0-12.8 0-19.2 0zM352 163.2c6.4 0 12.8 0 19.2-3.2 16-6.4 28.8-12.8 44.8-19.2s35.2-9.6 51.2-12.8c6.4 0 22.4-3.2 22.4-3.2 19.2 0 32-12.8 38.4-32l19.2-70.4 144 35.2-19.2 73.6c-3.2 16 3.2 35.2 16 44.8 0 0 12.8 9.6 19.2 12.8 19.2 16 38.4 32 54.4 51.2 6.4 6.4 16 22.4 16 22.4 9.6 16 28.8 22.4 48 16l70.4-19.2 41.6 144-41.6 12.8c-32 9.6-57.6 38.4-60.8 70.4-3.2 12.8-3.2 28.8-9.6 41.6-3.2 16-9.6 32-16 48-3.2 6.4-6.4 16-6.4 16-9.6 16-6.4 35.2 9.6 48l51.2 54.4-105.6 105.6-54.4-54.4c-12.8-12.8-32-16-48-9.6-6.4 3.2-16 6.4-22.4 9.6-25.6 12.8-51.2 19.2-76.8 22.4-6.4 0-12.8 3.2-22.4 3.2-19.2 0-35.2 12.8-38.4 32l-16 70.4-144-35.2 16-73.6c3.2-19.2-3.2-35.2-19.2-44.8-6.4-3.2-12.8-9.6-19.2-12.8-25.6-22.4-48-44.8-67.2-73.6-9.6-16-28.8-22.4-48-16l-70.4 19.2-41.6-144 73.6-22.4c19.2-6.4 32-25.6 32-44.8s3.2-38.4 9.6-60.8c3.2-16 9.6-32 16-48 3.2-6.4 3.2-9.6 6.4-16 6.4-12.8 3.2-32-9.6-44.8l-54.4-54.4 105.6-105.6 54.4 51.2c9.6 9.6 19.2 16 32 16v0z" />
<glyph unicode="&#xe976;" glyph-name="html-code" d="M853.333 149.333v512h-682.667v-512h682.667zM853.333 832c46.933 0 85.333-38.4 85.333-85.333v-597.333c0-46.933-38.4-85.333-85.333-85.333h-682.667c-46.933 0-85.333 38.4-85.333 85.333v597.333c0 46.933 38.4 85.333 85.333 85.333h682.667zM571.733 315.733l106.667 106.667-106.667 106.667 34.133 34.133 136.533-136.533-136.533-136.533-34.133 25.6zM452.267 315.733l-106.667 106.667 106.667 106.667-29.867 29.867-136.533-136.533 136.533-136.533 29.867 29.867z" />
<glyph unicode="&#xe977;" glyph-name="evernote" d="M643.84 463.787c0 0 8.107 54.613 38.827 54.613 32.427 0 75.947-72.96 75.947-72.96s-98.987 18.347-114.773 18.347zM810.667 759.893c-15.36 25.6-92.587 54.613-132.693 54.613-39.68 0-101.973 0-101.973 0s-34.133 60.16-111.787 60.16c-78.080 0-72.96-34.56-72.96-64v-120.32l-35.413-37.12h-163.84c0 0-45.227-30.72-45.227-96 0-66.56 20.48-294.827 157.44-316.16 162.133-24.747 189.867 50.347 189.867 59.307 0 38.4 0.853 96 0.853 96s47.36-90.453 119.040-90.453c71.68 0 113.067-41.387 113.067-83.627s0-78.507 0-78.507c0 0-1.707-49.067-44.373-49.067s-90.027 0-90.027 0c0 0-29.44 23.040-29.44 54.613 0 32 14.080 40.533 31.147 40.533 16.64 0 30.72-1.707 30.72-1.707v66.56c0 0-135.68 1.28-135.68-102.827 0-103.68 70.827-130.56 127.573-130.56 57.173 0 92.587 0 92.587 0s167.68 21.333 167.68 352c0 330.667-52.48 361.387-66.56 386.56zM320 690.773h-138.24l173.227 174.507v-139.947l-34.987-34.56z" />
<glyph unicode="&#xe978;" glyph-name="ray-start" d="M170.667 576c55.893 0 103.253-35.413 120.747-85.333h647.253v-85.333h-647.253c-17.493-49.92-64.853-85.333-120.747-85.333-70.692 0-128 57.308-128 128s57.308 128 128 128z" />
<glyph unicode="&#xe979;" glyph-name="dropbox" d="M512 338.773l185.6-153.6 78.933 51.627v-57.6l-264.533-157.867-263.68 157.867v57.6l79.36-51.627 184.32 153.6zM327.68 853.333l184.32-153.173 184.32 153.173 263.68-170.667-182.187-146.773 182.187-145.92-263.68-171.947-184.32 154.027-184.32-154.027-263.68 171.947 182.187 145.92-182.187 146.773 263.68 170.667zM512 376.32l261.547 159.573-261.547 160-261.547-160 261.547-159.573z" />
<glyph unicode="&#xe97a;" glyph-name="cloud-upload" d="M597.333 405.333v-170.667h-170.667v170.667h-128l213.333 213.333 213.333-213.333zM825.6 532.053c-29.013 146.773-158.293 257.28-313.6 257.28-123.307 0-230.4-69.973-283.733-171.947-128.427-14.080-228.267-122.453-228.267-254.72 0-141.385 114.615-256 256-256h554.667c117.821 0 213.333 95.513 213.333 213.333 0 112.64-87.467 203.947-198.4 212.053z" />
<glyph unicode="&#xe97b;" glyph-name="box" d="M656.64 360.96v0c0 60.587-49.067 109.653-109.653 109.653-60.16 0-109.227-49.067-109.227-109.653v0c0-60.16 49.067-109.227 109.227-109.227 60.587 0 109.653 49.067 109.653 109.227zM729.6 360.96c0-100.693-81.92-182.187-182.613-182.187-69.547 0-130.133 39.253-160.853 96.853-30.72-57.6-91.307-96.853-160.853-96.853-99.84 0-180.907 80.213-182.613 179.2v0 0 303.36c0 18.773 16.64 34.987 36.693 34.987s35.84-16.213 36.267-34.987v0 0-154.453c30.72 23.040 68.693 36.693 109.653 36.693 69.547 0 130.133-39.253 160.853-96.853 30.72 57.6 91.307 96.853 160.853 96.853 100.693 0 182.613-81.92 182.613-182.613v0zM334.507 360.96v0c0 60.587-49.067 109.653-109.227 109.653-60.587 0-109.653-49.067-109.653-109.653v0c0-60.16 49.067-109.227 109.653-109.227 60.16 0 109.227 49.067 109.227 109.227zM974.507 236.373v0c4.693-6.827 6.827-14.507 6.827-21.76 0-11.093-5.12-22.613-14.507-29.013-6.827-4.693-14.080-7.253-21.76-7.253-10.667 0-21.333 4.693-27.733 13.653l-81.493 107.947-80.64-107.947c-7.253-8.96-17.92-13.653-28.587-13.653-7.68 0-15.36 2.56-22.613 7.253-8.96 6.4-14.080 18.347-14.080 29.44 0 7.253 2.56 14.933 6.827 21.333v0 0 0l92.587 124.587-92.587 125.013c-4.693 6.4-6.827 13.653-6.827 21.333 0 11.093 5.12 21.76 14.080 29.013 16.64 11.947 38.827 8.96 51.2-6.827v0l80.64-107.52 81.493 107.52c11.093 15.787 33.707 18.773 49.493 6.827 9.813-7.253 14.507-18.347 14.507-29.867 0-7.253-2.133-14.507-6.827-20.48v0 0 0l-93.013-125.013 93.013-124.587z" />
<glyph unicode="&#xe97c;" glyph-name="text-editor" d="M915.454 922h-802.908c-57.74 0-104.546-46.806-104.546-104.546v-752.728c0-57.738 46.806-104.546 104.546-104.546h802.91c57.738 0 104.546 46.806 104.546 104.546v752.728c-0.002 57.74-46.808 104.546-104.548 104.546zM293.41 832.090c13.28 0 24.046-10.766 24.046-24.046s-10.766-24.046-24.046-24.046-24.046 10.766-24.046 24.046c0 13.282 10.766 24.046 24.046 24.046zM201.41 832.090c13.28 0 24.046-10.766 24.046-24.046s-10.766-24.046-24.046-24.046c-13.28 0-24.046 10.766-24.046 24.046 0 13.282 10.766 24.046 24.046 24.046zM111.5 832.090c13.28 0 24.046-10.766 24.046-24.046 0-13.278-10.766-24.044-24.046-24.044s-24.046 10.766-24.046 24.046c0 13.28 10.766 24.044 24.046 24.044zM940.546 35.454h-853.092v681.636h853.090v-681.636zM796.272 574.91h-612.636c-17.25 0-31.364 14.114-31.364 31.364v0c0 17.25 14.114 31.364 31.364 31.364h612.636c17.25 0 31.364-14.114 31.364-31.364v0c0-17.252-14.114-31.364-31.364-31.364zM608.75 428.546h-429.954c-14.588 0-26.524 11.936-26.524 26.524v9.68c0 14.588 11.936 26.524 26.524 26.524h429.954c14.588 0 26.524-11.936 26.524-26.524v-9.68c-0.002-14.588-11.936-26.524-26.524-26.524zM438.478 282.182h-265.046c-11.638 0-21.158 9.522-21.158 21.158v20.41c0 11.638 9.522 21.158 21.158 21.158h265.046c11.638 0 21.158-9.522 21.158-21.158v-20.41c0-11.636-9.52-21.158-21.158-21.158zM307.924 135.818h-139.848c-8.692 0-15.802 7.112-15.802 15.802v31.122c0 8.692 7.112 15.802 15.802 15.802h139.85c8.692 0 15.802-7.112 15.802-15.802v-31.122c0-8.69-7.112-15.802-15.804-15.802zM471.752 132.3l27.984-27.982 76.316 17.808-84.966 84.456zM707.316 426.882c-3.052 3.052-5.088 6.614-6.106 10.684l-200.458-199.95c-2.544-2.544-4.070-5.596-4.070-9.158s1.526-6.614 4.070-9.158l87-87c5.088-5.088 13.736-5.088 18.824 0l199.95 199.95c-4.070 1.018-7.632 3.562-10.684 6.106l-88.526 88.526zM838.58 365.828c-3.562 1.018-7.122 3.052-10.176 6.106l-88.528 89.036c-2.544 2.544-4.578 5.596-5.596 8.65l-16.28-16.28c-4.070-4.070-4.070-11.194 0-15.264l88.528-89.036c4.070-4.070 11.194-4.070 15.264 0l16.788 16.788zM747.51 479.286c0-3.052 1.018-5.596 3.052-7.632l88.528-88.528c4.070-4.070 11.194-4.070 15.264 0l40.194 40.194c4.070 4.070 4.070 11.194 0 15.264v0.508l-88.526 88.018c-2.036 2.036-5.088 3.052-7.632 3.052s-5.596-1.018-7.632-3.052l-40.194-40.194c-2.038-2.034-3.054-4.578-3.054-7.63zM489.050 100.248l-21.368 21.878-6.614-23.912c-0.508-2.036 0.508-3.052 1.018-3.562 0 0 1.018-1.018 2.544-0.508l24.42 6.104z" />
<glyph unicode="&#xe97d;" glyph-name="segment-add" d="M8 828h121.684v-121.684h-121.684v121.684zM275.704 828h739.834v-121.684h-739.834v121.684zM8 535.96h121.684v-121.684h-121.684v121.684zM275.704 535.96h739.834v-121.684h-739.834v121.684zM8 243.92h121.684v-121.684h-121.684v121.684zM275.704 243.35h369.916v-121.684h-369.916v121.684zM1016.142 243.35h-109.668v109.668h-121.682v-109.668h-109.668v-121.684h109.668v-109.666h121.682v109.666h109.668z" />
<glyph unicode="&#xe97e;" glyph-name="refresh-stop" d="M710.002 380.336c6.204 1.744 12.422 3.126 18.636 4.178 0.398 1.462 0.802 2.92 1.182 4.39h-88.836c-42.35-120.336-172.136-199.454-313.080-161.074-86.088 23.442-153.27 91.702-175.632 178.078-44.276 171.020 83.62 324.672 247.404 324.672 70.898 0 134.108-29.47 180.234-76.022l-137.524-137.524h298.966v298.966l-100.368-100.368c-80.776 80.776-200.79 121.588-329.712 89.266-117.568-29.476-210.376-120.88-241.144-238.114-59.974-228.524 110.774-434.136 329.548-434.136 67.134 0 129.566 19.344 182.182 52.752-11.752 86.502 41.708 170.642 128.144 194.936zM677.206 335.564c-80.878-55.736-101.26-166.484-45.522-247.362s166.484-101.26 247.362-45.522 101.26 166.484 45.524 247.362c-55.74 80.878-166.488 101.258-247.364 45.522zM689.626 128.134c-19.668 28.54-23.626 63.228-13.806 93.864l165.212-119.978c-0.642-0.464-1.264-0.944-1.92-1.396-48.876-33.682-115.804-21.366-149.486 27.51zM881.972 161.53l-162.214 117.802c48.624 31.492 113.776 18.79 146.864-29.222 18.546-26.91 23.118-59.286 15.35-88.58z" />
<glyph unicode="&#xe97f;" glyph-name="google-plus-box" d="M896 960h-768c-70.692 0-128-57.308-128-128v-768c0-70.692 57.308-128 128-128h768c70.692 0 128 57.308 128 128v768c0 70.692-57.308 128-128 128zM555.2 257.6c-41.913-50.29-104.571-82.062-174.649-82.062-5.091 0-10.143 0.168-15.151 0.498-24.585 0.984-48.431 5.591-70.84 13.29-81.749 28.762-143.409 100.326-158.045 187.821-1.671 10.913-2.514 21.87-2.514 33.023 0 2.050 0.028 4.094 0.085 6.13 0.721 132.403 108.466 239.698 241.27 239.698 61.055 0 116.813-22.678 159.312-60.069-19.788-21.209-39.948-42.649-61.068-63.769-11.551 7.203-25.014 14.17-39.033 20.079-19.404 9.115-39.922 14.018-61.586 14.018-14.798 0-29.061-2.288-42.455-6.529-60.912-20.012-104.836-77.267-104.836-144.781 0-10.269 1.016-20.3 2.953-29.999 1.102-6.552 2.77-13.122 4.909-19.476 5.845-18.663 15.61-35.56 28.323-49.762l2.126-2.75 10.88-10.88 5.44-4.16 6.72-5.44c24.645-18.273 55.654-29.25 89.228-29.25 20.679 0 40.385 4.164 58.325 11.7 38.148 16.153 67.247 49.779 77.221 90.882-45.574 0.908-91.654 0.908-137.414 2.508 0 27.2 0 54.4 0 81.6v0c76.48 0 152.96 0 229.44 0 0 0 0-2.24 0-3.2 1.215-9.609 1.908-20.728 1.908-32.008 0-58.976-18.948-113.527-51.089-157.896zM890.24 381.44h-68.8c0-23.040 0-45.76 0-68.8h-68.8c0 23.040 0 45.76 0 68.48h-69.12v68.8h68.48c0 22.72 0 45.76 0 68.48h68.16c0-22.72 0-45.76 0-68.48h68.48z" />
<glyph unicode="&#xe980;" glyph-name="email" d="M980.082 792.106h-935.166c-24.274 0-44.024-19.75-44.024-44.024v-696.166c0-24.276 19.75-44.024 44.024-44.024h935.166c24.276 0 44.024 19.748 44.024 44.024v696.168c0 24.274-19.748 44.022-44.024 44.022zM875.698 711.894l-368.224-331.638-363.532 331.638h731.756zM81.106 88.106v572.824l399.238-364.212c7.634-6.964 17.294-10.45 26.958-10.45 9.576 0 19.158 3.424 26.768 10.278l409.824 369.102v-577.544h-862.788z" />
<glyph unicode="&#xe981;" glyph-name="email-opened" d="M1023.926 593.692c-0.030 0.708-0.056 1.414-0.124 2.122-0.050 0.51-0.13 1.014-0.198 1.52-0.104 0.782-0.21 1.564-0.362 2.342-0.092 0.466-0.214 0.926-0.322 1.388-0.184 0.788-0.366 1.574-0.598 2.352-0.154 0.52-0.346 1.026-0.522 1.54-0.238 0.692-0.464 1.386-0.742 2.068-0.282 0.698-0.614 1.374-0.934 2.056-0.226 0.476-0.428 0.958-0.674 1.428-0.518 0.992-1.092 1.958-1.696 2.908-0.092 0.144-0.162 0.296-0.256 0.44-0.010 0.016-0.022 0.030-0.034 0.046-0.722 1.106-1.5 2.18-2.338 3.216-0.014 0.018-0.026 0.036-0.040 0.054-0.63 0.776-1.318 1.514-2.010 2.248-0.24 0.256-0.46 0.534-0.706 0.782-0.232 0.234-0.496 0.444-0.736 0.672-0.742 0.712-1.49 1.416-2.278 2.062-0.010 0.008-0.022 0.016-0.032 0.024-1.038 0.85-2.114 1.638-3.222 2.372-0.016 0.010-0.030 0.024-0.046 0.034l-472 312c-13.382 8.848-30.764 8.838-44.144-0.020l-469.66-311.054c-7.284-4.824-12.438-11.634-15.298-19.23-0.296-0.726-0.536-1.464-0.788-2.2-0.030-0.094-0.068-0.186-0.096-0.282-1.366-4.114-2.056-8.356-2.052-12.58h-1.018v-614.542c0-23.964 19.702-43.458 43.916-43.458h935.166c24.216 0 43.918 19.494 43.918 43.458v614.542h-0.012c0 0.566-0.038 1.128-0.062 1.692zM512.022 856.038l399.114-263.822-399.090-260.424-397.884 260.742 397.86 263.504zM81 14v504.618l409.076-268.076c6.656-4.36 14.29-6.542 21.924-6.542 7.608 0 15.216 2.166 21.86 6.502l410.14 267.634v-504.136h-863z" />
<glyph unicode="&#xe982;" glyph-name="email-content" d="M1022.376 600.13l-0.384-0.002c-0.036 11.432-4.962 22.36-13.624 29.952l-162 142c-0.554 0.486-1.142 0.906-1.714 1.356v130.406c0 22.408-18.080 40.616-40.488 40.776l-585.736 4.158c-0.096 0-0.192 0-0.29 0-10.758 0-21.086-4.252-28.726-11.836-7.708-7.652-12.046-18.064-12.050-28.926l-0.048-144.32-162.608-132.704c-9.366-7.644-14.734-19.092-14.696-31.118l-0.638-0.002 2-614.414c0-23.962 19.702-43.458 43.916-43.458h935.166c24.216 0 43.918 19.494 43.918 43.588l-1.998 614.544zM916.54 604.188l-71.886-48.332v111.344l71.886-63.012zM763.098 863.354v-362.332l-251.144-168.856-253.172 169.496 0.122 365.268 504.194-3.576zM177.282 660.404l-0.034-104.154-70.090 46.926 70.124 57.228zM81.256 22l-1.638 503.34 410.128-274.578c6.736-4.508 14.494-6.762 22.254-6.762 7.786 0 15.572 2.27 22.318 6.804l408.3 274.516 1.638-503.32h-863zM346 702h342c22 0 40 18 40 40v0c0 22-18 40-40 40h-342c-22 0-40-18-40-40v0c0-22 18-40 40-40zM346 540h342c22 0 40 18 40 40v0c0 22-18 40-40 40h-342c-22 0-40-18-40-40v0c0-22 18-40 40-40z" />
<glyph unicode="&#xe983;" glyph-name="email-content-recipient" d="M1021.99 602.128c-0.036 11.432-4.962 22.36-13.624 29.952l-162 142c-0.554 0.486-1.142 0.906-1.714 1.356v130.406c0 22.408-18.080 40.616-40.488 40.776l-585.734 4.158c-0.096 0-0.192 0-0.29 0-10.758 0-21.086-4.252-28.726-11.836-7.708-7.652-12.046-18.064-12.050-28.926l-0.048-144.32-162.608-132.704c-9.366-7.644-14.734-19.092-14.696-31.118l-0.638-0.002 2-614.414c0-23.962 19.702-43.458 43.916-43.458h935.166c24.216 0 43.918 19.494 43.918 43.588l-2 614.542h-0.384zM916.54 606.188l-71.886-48.332v111.344l71.886-63.012zM763.098 865.354v-362.332l-251.144-168.856-253.172 169.496 0.122 365.268 504.194-3.576zM177.282 662.404l-0.034-104.154-70.090 46.926 70.124 57.228zM81.256 24l-1.638 503.34 410.128-274.578c6.736-4.508 14.494-6.762 22.254-6.762 7.786 0 15.572 2.27 22.318 6.804l408.3 274.516 1.638-503.32h-863zM590.568 597.622c0.054-0.206 0.094-0.368 0.126-0.498 2.95-3.638-1.080 4.154-0.126 0.498zM488.154 432.004c55.728-8.912 112.234 3.156 155.742 40.098 13.306 11.298 11.628 34.050 0 45.678-13.182 13.182-32.34 11.326-45.678 0-0.852-0.724-1.444-1.236-1.858-1.6-1.472-1.070-2.962-2.112-4.48-3.116-3.696-2.446-7.514-4.698-11.436-6.762-1.434-0.756-7.952-3.632-7.46-3.554-4.122-1.57-8.294-3.004-12.536-4.22-4.36-1.248-8.772-2.298-13.222-3.17-2.124-0.416-4.256-0.794-6.396-1.122-0.432-0.032-0.928-0.070-1.558-0.116-9.156-0.682-18.246-0.982-27.42-0.362-2.030 0.138-4.044 0.35-6.070 0.514-0.34 0.028-0.642 0.052-0.926 0.074-0.234 0.052-0.562 0.116-1.026 0.198-4.472 0.794-8.914 1.672-13.318 2.786-3.882 0.982-7.73 2.112-11.522 3.396-1.89 0.64-3.744 1.35-5.622 2.018-0.68 0.242-1.162 0.406-1.554 0.536-0.316 0.188-0.824 0.466-1.64 0.886-18.264 9.398-26.848 15.976-40.642 31.124-23.346 25.638-38.782 62.034-39.068 96.076-0.3 35.766 13.352 74.122 36.956 100.388 6.034 6.714 12.626 12.71 19.472 18.566 0.132 0.114 0.322 0.264 0.534 0.428 1.28 0.936 2.558 1.872 3.858 2.78 3.726 2.6 7.55 5.060 11.458 7.374 3.504 2.076 7.078 4.032 10.712 5.87 1.088 0.55 8.742 3.992 7.988 3.792 6.782 2.692 13.722 5.002 20.77 6.888 3.886 1.040 7.806 1.954 11.75 2.744 1.332 0.266 9.992 1.512 8.572 1.446 7.062 0.72 14.142 1.138 21.248 1.076 3.532-0.032 7.064-0.164 10.588-0.4 2.14-0.144 4.446-0.638 6.586-0.57 0.104 0.004 0.19 0.008 0.28 0.012 0.1-0.018 0.188-0.034 0.294-0.054 7.796-1.39 15.496-2.986 23.080-5.296 3.36-1.024 6.63-2.284 9.96-3.386 0.378-0.124 0.672-0.218 0.964-0.312 1.902-0.966 3.902-1.77 5.816-2.716 7.134-3.524 14.002-7.59 20.51-12.168 0.886-0.622 1.754-1.276 2.63-1.918 0.522-0.426 1.15-0.942 1.462-1.228 3.008-2.772 6.114-5.388 9.024-8.272 2.946-2.92 5.772-5.958 8.468-9.11 0.68-0.794 1.334-1.614 2-2.424 0.198-0.37 3.024-4.15 3.278-4.522 4.508-6.602 8.446-13.532 11.724-20.826 0.026-0.058 0.040-0.086 0.066-0.14 0.112-0.378 0.244-0.82 0.404-1.342 0.558-1.816 1.262-3.596 1.838-5.408 1.448-4.564 2.666-9.206 3.65-13.892 0.312-1.486 1.352-9.56 1.258-7.616 0.316-3.67 0.574-7.33 0.628-11.020 0.064-4.336-0.208-8.616-0.418-12.938-0.026-0.538-0.156-1.69-0.238-2.438-0.336-1.982-0.706-3.958-1.138-5.916-1.026-4.636-2.546-9.066-3.888-13.606-0.118-0.4-0.218-0.74-0.31-1.048-1.026-2.25-2.13-4.472-3.32-6.636-0.902-1.64-1.854-3.262-2.85-4.85-0.278-0.442-3.118-4.382-3.104-4.554-2.584-2.988-5.404-5.726-8.222-8.506-0.344-0.34-0.628-0.618-0.882-0.87-1.84-1.286-3.718-2.516-5.662-3.64-1.606-0.93-3.25-1.728-4.882-2.598-0.47-0.25-0.822-0.448-1.12-0.622-0.346-0.040-0.822-0.12-1.524-0.27-1.682-0.36-3.686-0.93-5.368-1.456-0.466-0.146-0.83-0.272-1.136-0.384-0.294 0.038-0.644 0.074-1.108 0.106-0.666 0.044-1.344 0.044-2.018 0.050-0.118 0.076-1.016 0.224-2.070 0.41 0.398 0.276-2.062 1.58-1.498 0.282-0.224 0.046-0.438 0.092-0.64 0.14-0.576 0.722-1.212 1.544-1.658 2.128 0.148-0.604 0.068-0.416-0.118 0.154-0.176 0.232-0.314 0.41-0.386 0.506 0.144-0.19 0.252-0.32 0.376-0.474-0.44 1.354-1.44 4.72-1.564 5.17 0.080-0.292-0.694 3.582-1.104 5.312-0.13 1.686-0.39 4.456-0.406 4.886-0.222 5.79 0.038 11.596 0.58 17.36 0.040 0.416 0.222 1.91 0.362 3.072 0.368 1.894 1.324 7.358 1.528 8.346 1.322 6.404 2.946 12.738 4.682 19.042 0.068 0.248 0.142 0.494 0.21 0.742 2.712 8.838 5.192 17.736 7.564 26.594 1.146 4.124 2.264 8.256 3.292 12.416 4.044 16.376-5.24 35.788-22.56 39.732-0.026 0.006-0.052 0.008-0.078 0.014-35.852 22.162-80.474 8.104-112.104-15.172-32.932-24.234-55.102-58.954-60.288-99.8-4.918-38.728 12.428-85.334 55.662-91.144 27.734-3.726 51.918 9.004 71.438 27.264 1.504-2.246 3.094-4.47 4.866-6.646 35.216-43.256 100.594-24.094 132.21 12.986 31.874 37.384 39.486 88.46 28.678 135.478-10.262 44.634-40.022 83.066-78.024 107.864-70.29 45.866-169.144 38.652-235.81-10.486-87.372-64.4-114.404-186.612-57.618-280.284 28.988-47.816 75.498-84.862 131.53-93.822zM535.118 634.142c-5.188-8.17-5.122-8.348-12.77-16.21-7.12-7.32-8.266-7.478-15.086-12.406-0.46-0.332-0.782-0.586-1.050-0.808-0.208-0.048-0.412-0.096-0.684-0.17-1.344-0.456-2.71-0.838-4.088-1.174-0.076 0.14-0.16 0.302-0.222 0.412-0.968 2.834-1.718 5.818-2.22 8.774 0.366-1.428-0.116 6.158-0.094 7.288 0.024 1.19 0.988 8.166 0.694 7.36 0.738 3.514 1.588 6.994 2.684 10.422 0.544 1.694 1.154 3.364 1.782 5.030 0.228 0.486 0.546 1.172 0.96 2.074 2.026 3.776 3.972 7.546 6.278 11.17 1.144 1.796 2.334 3.558 3.572 5.29-1.888-2.288-1.626-1.968 0.786 0.96 4.358 4.962 8.96 9.668 14.064 13.856-0.062-0.232 6.538 4.468 7.332 4.97 3.676 2.328 7.504 4.298 11.29 6.424 1.628 0.744 2.564 1.188 2.874 1.358 1.512 0.566 3.022 1.136 4.562 1.622 0.434 0.136 1.818 0.416 3.36 0.726-1.768-5.994-3.604-11.968-5.638-17.88-1.412-4.108-2.958-8.156-4.478-12.224-0.422-1.038-0.72-1.778-0.924-2.288-0.72-1.626-1.448-3.25-2.208-4.86-3.202-6.778-6.76-13.388-10.776-19.716zM616.94 600.708c0.242-0.074 0.452-0.134 0.646-0.186 0.034-0.068 0.054-0.124 0.102-0.206 0.078-0.126 0.128-0.216 0.188-0.318-0.034 0.002-0.070 0-0.106 0.002 0.040-0.002 0.068-0.004 0.108-0.006 0.798-1.36 0.048-0.516-0.938 0.714zM447.58 750.868c1.262 0.97 3.090 2.262 0 0v0zM590.702 597.090c-0.004 0.012-0.004 0.020-0.008 0.032-0.034 0.042-0.076 0.096-0.112 0.142 0.004-0.010 0.006-0.020 0.010-0.030 0.034-0.044 0.074-0.096 0.11-0.144z" />
<glyph unicode="&#xe984;" glyph-name="email-recipient" d="M1023.926 601.692c-0.030 0.708-0.056 1.414-0.124 2.122-0.050 0.51-0.13 1.014-0.198 1.52-0.104 0.782-0.21 1.564-0.362 2.342-0.092 0.466-0.214 0.926-0.322 1.388-0.184 0.788-0.366 1.574-0.598 2.352-0.154 0.52-0.346 1.026-0.522 1.54-0.238 0.692-0.464 1.386-0.742 2.068-0.282 0.698-0.614 1.374-0.934 2.056-0.226 0.476-0.428 0.958-0.674 1.428-0.518 0.992-1.092 1.958-1.696 2.908-0.092 0.144-0.162 0.296-0.256 0.44-0.010 0.016-0.022 0.030-0.034 0.046-0.72 1.102-1.496 2.174-2.332 3.208-0.016 0.020-0.030 0.042-0.046 0.062-0.626 0.774-1.31 1.506-2 2.238-0.244 0.258-0.468 0.542-0.716 0.794-0.228 0.228-0.484 0.434-0.718 0.658-0.748 0.718-1.502 1.426-2.296 2.078-0.002 0.002-0.006 0.004-0.008 0.006-1.044 0.856-2.128 1.65-3.244 2.388-0.016 0.010-0.030 0.024-0.046 0.034l-472 312c-13.382 8.846-30.764 8.84-44.144-0.020l-469.662-311.056c-7.284-4.824-12.438-11.634-15.298-19.23-0.296-0.726-0.536-1.464-0.788-2.2-0.030-0.094-0.068-0.186-0.096-0.282-1.366-4.114-2.056-8.356-2.052-12.58h-1.018v-614.542c0-23.964 19.702-43.458 43.916-43.458h935.166c24.216 0 43.918 19.494 43.918 43.458v614.542h-0.012c0 0.566-0.038 1.128-0.062 1.692zM512.022 864.038l399.114-263.822-399.090-260.424-397.884 260.742 397.86 263.504zM81 22v504.618l409.076-268.076c6.656-4.36 14.29-6.542 21.924-6.542 7.608 0 15.216 2.166 21.86 6.502l410.14 267.634v-504.136h-863zM354.7 499.438c26.744-43.176 68.688-76.266 119.474-84.714 51.352-8.542 103.602 2.824 143.716 36.772 12.248 10.366 10.676 31.314 0 41.99-12.132 12.132-29.712 10.39-41.99 0-0.954-0.808-1.59-1.348-2.014-1.708-1.366-1-2.782-1.96-4.184-2.882-3-1.974-6.098-3.792-9.264-5.486-1.818-0.974-3.668-1.876-5.52-2.782-0.518-0.252-0.858-0.424-1.094-0.55-0.122-0.048-0.22-0.086-0.366-0.144-4.354-1.736-8.832-3.19-13.346-4.446-3.54-0.984-7.12-1.824-10.724-2.54-1.094-0.218-7.768-1.132-7.106-1.138-8.668-0.804-17.364-0.976-26.052-0.38-9.394 0.644-29.812 5.398-37.874 9.466-15.566 7.85-24.562 14.658-36.804 27.918-22.142 23.986-36.242 57.136-36.626 88.668-0.398 32.59 11.17 66.822 33.088 91.712 5.28 5.996 11.050 11.434 17.090 16.646 0.726 0.626 1.482 1.226 2.23 1.83 0.598 0.442 1.676 1.252 1.978 1.456 3.564 2.4 7.064 4.838 10.746 7.064 5.686 3.438 11.578 6.52 17.622 9.278-0.942-0.504 6.452 2.514 7.308 2.814 3.546 1.244 7.136 2.376 10.756 3.388 6.688 1.872 13.48 3.308 20.338 4.394 0.186 0.012 0.398 0.028 0.668 0.050 1.392 0.112 2.78 0.278 4.172 0.388 4.166 0.33 8.346 0.506 12.526 0.528 6.316 0.032 12.65-0.278 18.932-0.98-0.612-0.016 6.546-1.16 7.568-1.374 3.598-0.754 7.174-1.632 10.71-2.638 3.534-1.006 7.036-2.138 10.488-3.398 1.496-0.546 2.988-1.12 4.464-1.722 0.33-0.172 0.702-0.366 1.168-0.61 6.588-3.444 13.094-6.838 19.248-11.040 1.282-0.874 2.546-1.782 3.796-2.704 0.104-0.088 0.168-0.14 0.298-0.248 2.92-2.43 5.752-4.942 8.478-7.588 2.418-2.346 4.754-4.776 6.996-7.29 1.020-1.144 2.008-2.32 2.992-3.496 0.432-0.566 1.936-2.464 2.46-3.212 10.084-14.376 13.438-21.98 17.060-37.892 0.388-1.704 1.548-8.924 1.554-8.14 0.332-3.242 0.546-6.498 0.628-9.754 0.092-3.562 0.046-7.13-0.168-10.688-0.086-1.434-0.2-2.882-0.338-4.322-0.074-0.090-0.636-3.676-0.766-4.314-0.912-4.45-2.284-8.694-3.526-13.050-0.1-0.354-0.742-2.064-0.944-2.672-0.82-1.784-1.718-3.536-2.654-5.254-0.714-1.31-1.45-2.608-2.228-3.88-0.012-0.020-3.414-4.902-3.144-4.77-2.328-2.764-4.96-5.224-7.488-7.804-0.392-0.4-0.71-0.722-0.994-1.008-1.85-1.322-3.812-2.466-5.754-3.644-0.302-0.184-2.008-1.076-3.056-1.646-1.286-0.42-4.754-1.734-4.754-1.734-1.324-0.384-2.682-0.724-4.040-1.020 0.184 0.104-0.994 0.012-2.398-0.192-0.468-0.068-0.85-0.118-1.19-0.162-0.71 0.228-1.848 0.6-2.786 0.886-0.312 0.676-2.698 2.542-1.622 0.814 0.136-0.218 0.214-0.346 0.268-0.438-0.012 0.002-0.024 0.006-0.034 0.006-0.54 0.776-2.77 4.258-0.496 1.262-0.242 0.32-1.236 2.448-1.416 2.692-0.476 1.514-0.818 3.074-1.262 4.594-0.22 0.756-0.388 1.346-0.518 1.82-0.324 2.572-0.38 5.224-0.422 7.812-0.078 4.802 0.274 9.54 0.626 14.322 0.026 0.358 0.18 1.516 0.288 2.324 0.47 2.916 1.022 5.818 1.634 8.704 1.182 5.576 2.616 11.094 4.13 16.588 2.614 8.506 4.988 17.072 7.26 25.584 0.992 3.578 1.958 7.164 2.852 10.772 4.128 16.66-5.060 28.986-17.302 34.178-0.744 0.572-1.514 1.122-2.318 1.632-33.63 21.45-75.284 8.242-105-13.78-30.146-22.342-50.724-54.956-54.854-92.572-4.118-37.498 13.852-78.852 55.14-82.898 23.778-2.33 44.774 9.394 61.774 25.394 30.224-44.42 93.050-31.766 124.626 4.236 30.278 34.522 37.972 81.886 27.948 125.904-9.284 40.768-36.104 75.688-70.53 98.696-64.538 43.13-156.152 36.634-217.808-8.602-80.992-59.424-105.716-173.082-52.324-259.276zM496.13 576.508c-1.756-1.198-3.614-2.344-5.53-3.314 0.602 0.392-2.014-0.45-3.734-0.98-0.010 0.016-0.018 0.030-0.030 0.046-0.46 1.74-1.654 6.108-1.81 6.87-0.248 1.212-0.468 2.484-0.446 6.912 0-0.11 0.472 6.74 0.272 6.234 1.83 12.020 7.324 23.654 13.208 31.538 9.008 12.074 16.276 17.256 29.644 24.366 4.148 2.206 5.532 2.796 8.962 3.89 0.312 0.1 1.916 0.52 3.444 0.94-0.092-0.332-0.184-0.664-0.278-0.996-5.25-17.758-11.444-34.57-20.898-49.902-5.39-8.74-14.32-19.814-22.804-25.604zM588.93 580.582c-0.628 2.292-0.226 1.264 0 0v0zM596.122 568.692c-1.414-0.148-0.992 0.008 0 0v0zM617.83 576.972c-2.062-2.064-1.064-0.91 0 0v0z" />
<glyph unicode="&#xe985;" glyph-name="tick" d="M343.155 29.039l-298.349 309.042 133.62 129.726 171.684-178.576 527.697 487.205 126.499-136.679z" />
<glyph unicode="&#xe986;" glyph-name="refresh-time" d="M724.002 412.336c6.204 1.744 12.422 3.126 18.636 4.178 0.398 1.462 0.802 2.92 1.182 4.39h-88.836c-42.35-120.336-172.136-199.454-313.080-161.074-86.088 23.442-153.27 91.702-175.632 178.078-44.276 171.020 83.62 324.672 247.404 324.672 70.898 0 134.108-29.47 180.234-76.022l-137.524-137.524h298.966v298.966l-100.368-100.368c-80.776 80.776-200.79 121.588-329.712 89.266-117.568-29.476-210.376-120.88-241.144-238.114-59.974-228.524 110.774-434.136 329.548-434.136 67.134 0 129.566 19.344 182.182 52.752-11.752 86.502 41.708 170.642 128.144 194.936zM948.378 314.344c-48.402 85.468-156.928 115.518-242.396 67.114-85.468-48.402-115.518-156.928-67.114-242.396 48.402-85.468 156.928-115.518 242.396-67.114 85.468 48.402 115.518 156.926 67.114 242.396zM793.624 113.702c-62.408 0-113 50.592-113 113s50.592 113 113 113 113-50.592 113-113-50.592-113-113-113zM797.032 275.174l-31.706 0.224-0.622-88.756 81.592-0.634 0.248 31.708-49.912 0.386z" />
<glyph unicode="&#xe987;" glyph-name="image-solid" d="M170.667 789.333h682.667c46.933 0 85.333-38.4 85.333-85.333v-512c0-46.933-38.4-85.333-85.333-85.333h-682.667c-46.933 0-85.333 38.4-85.333 85.333v512c0 46.933 38.4 85.333 85.333 85.333zM810.667 234.667v341.333l-170.667-170.667-85.333 85.333-256-256h512zM298.667 661.333c-46.933 0-85.333-38.4-85.333-85.333s38.4-85.333 85.333-85.333 85.333 38.4 85.333 85.333-38.4 85.333-85.333 85.333z" />
<glyph unicode="&#xe988;" glyph-name="run" d="M576 725.333c46.507 0 85.333 39.253 85.333 85.333 0 47.787-38.827 85.333-85.333 85.333-47.36 0-85.333-37.547-85.333-85.333 0-46.080 37.973-85.333 85.333-85.333zM421.973 133.12l42.667 186.88 90.027-85.333v-256h85.333v320l-90.027 85.333 26.027 128c55.040-64 140.373-106.667 234.667-106.667v85.333c-81.493 0-149.333 42.667-183.893 103.253l-42.667 67.413c-17.067 26.453-42.667 42.667-72.107 42.667-13.227 0-21.333-3.413-34.56-3.413l-221.44-93.867v-201.387h85.333v145.92l76.373 29.867-68.267-346.453-209.067 42.667-17.067-85.333 298.667-58.88z" />
<glyph unicode="&#xe989;" glyph-name="fields-update" d="M597.333 533.333h-512v-85.333h512v85.333zM597.333 704h-512v-85.333h512v85.333zM85.333 277.333h341.333v85.333h-341.333v-85.333zM917.333 469.333l64-64-298.667-298.667-192 192 64 64 128-128 234.667 234.667z" />
<glyph unicode="&#xe98a;" glyph-name="video" d="M725.333 512v149.333c0 23.564-19.103 42.667-42.667 42.667h-512c-23.564 0-42.667-19.103-42.667-42.667v-426.667c0-23.564 19.103-42.667 42.667-42.667h512c23.564 0 42.667 19.103 42.667 42.667v149.333l170.667-170.667v469.333l-170.667-170.667z" />
<glyph unicode="&#xe98b;" glyph-name="account-card-details" d="M85.333 832h853.333c44.8 0 85.333-40.533 85.333-85.333v-597.333c0-44.8-40.533-85.333-85.333-85.333h-853.333c-44.8 0-85.333 40.533-85.333 85.333v597.333c0 44.8 40.533 85.333 85.333 85.333zM597.333 704v-42.667h341.333v42.667h-341.333zM597.333 618.667v-42.667h341.333v42.667h-341.333zM597.333 533.333v-42.667h298.667v42.667h-298.667zM341.333 366.507c-85.333 0-256-46.507-256-131.84v-42.667h512v42.667c0 85.333-170.667 131.84-256 131.84zM341.333 704c-70.692 0-128-57.308-128-128s57.308-128 128-128c70.692 0 128 57.308 128 128s-57.308 128-128 128z" />
<glyph unicode="&#xe98c;" glyph-name="calendar-clock" d="M640 405.333h64v-120.32l104.107-60.16-32-55.467-136.107 78.507v157.44zM810.667 618.667h-597.333v-469.333h199.253c-18.347 38.827-28.587 82.347-28.587 128 0 164.949 133.718 298.667 298.667 298.667 45.653 0 89.173-10.24 128-28.587v71.253zM213.333 64c-47.36 0-85.333 38.4-85.333 85.333v597.333c0 47.36 37.973 85.333 85.333 85.333h42.667v85.333h85.333v-85.333h341.333v85.333h85.333v-85.333h42.667c47.128 0 85.333-38.205 85.333-85.333v-260.267c52.907-53.76 85.333-127.573 85.333-209.067 0-164.949-133.718-298.667-298.667-298.667-81.493 0-155.307 32.427-209.067 85.333h-260.267zM682.667 484.267c-114.286 0-206.933-92.647-206.933-206.933 0-114.347 92.587-206.933 206.933-206.933 114.286 0 206.933 92.647 206.933 206.933 0 114.347-92.587 206.933-206.933 206.933z" />
<glyph unicode="&#xe98d;" glyph-name="calendar" d="M320 576h128v-128h-128zM512 576h128v-128h-128zM704 576h128v-128h-128zM128 192h128v-128h-128zM320 192h128v-128h-128zM512 192h128v-128h-128zM320 384h128v-128h-128zM512 384h128v-128h-128zM704 384h128v-128h-128zM128 384h128v-128h-128zM832 960v-64h-128v64h-448v-64h-128v64h-128v-1024h960v1024h-128zM896 0h-832v704h832v-704z" />
<glyph unicode="&#xe98e;" glyph-name="spinner" d="M192 448c0 12.18 0.704 24.196 2.030 36.022l-184.98 60.104c-5.916-31.14-9.050-63.264-9.050-96.126 0-147.23 62.166-279.922 161.654-373.324l114.284 157.296c-52.124 56.926-83.938 132.758-83.938 216.028zM832 448c0-83.268-31.812-159.102-83.938-216.028l114.284-157.296c99.488 93.402 161.654 226.094 161.654 373.324 0 32.862-3.132 64.986-9.048 96.126l-184.98-60.104c1.324-11.828 2.028-23.842 2.028-36.022zM576 761.592c91.934-18.662 169.544-76.742 214.45-155.826l184.978 60.102c-73.196 155.42-222.24 268.060-399.428 290.156v-194.432zM233.55 605.768c44.906 79.084 122.516 137.164 214.45 155.826v194.43c-177.188-22.096-326.23-134.736-399.426-290.154l184.976-60.102zM644.556 156.672c-40.39-18.408-85.272-28.672-132.556-28.672s-92.166 10.264-132.554 28.67l-114.292-157.31c73.206-40.366 157.336-63.36 246.846-63.36s173.64 22.994 246.848 63.36l-114.292 157.312z" />
<glyph unicode="&#xe98f;" glyph-name="subscribers" d="M923.312 822.578h-375.312l-125.196 56.082c-4.892 2.192-10.362 3.338-15.918 3.338h-373.332c-18.532 0.002-33.554-12.484-33.554-27.888v-705.798c0-56.416 44.47-102.312 99.128-102.312h822.184c54.66 0 101.128 45.896 101.128 102.31v571.958c0.002 56.414-44.468 102.31-99.128 102.31zM943.030 145.128c0-10.844-8.872-19.718-19.716-19.718h-824.186c-10.844 0-19.716 8.872-19.716 19.718v554.17c0 8.84 5.896 16.364 13.95 18.848h506.626c2.904 0 5.736 0.302 8.448 0.87h314.878c10.844 0 19.716-8.872 19.716-19.716v-554.172zM860 248h-234c-22 0-40 18-40 40v0c0 22 18 40 40 40h234c22 0 40-18 40-40v0c0-22-18-40-40-40zM860 374h-234c-22 0-40 18-40 40v0c0 22 18 40 40 40h234c22 0 40-18 40-40v0c0-22-18-40-40-40zM860 500h-234c-22 0-40 18-40 40v0c0 22 18 40 40 40h234c22 0 40-18 40-40v0c0-22-18-40-40-40zM289.898 381.424c-57.34 0-169.898-28.908-169.898-88.95v-29.546c0-8.246 6.684-14.93 14.93-14.93h309.94c8.246 0 14.93 6.684 14.93 14.93v29.546c-0.002 60.042-112.56 88.95-169.902 88.95zM372 495.352c0-46.75-37.898-84.648-84.648-84.648s-84.648 37.898-84.648 84.648c0 46.75 37.898 84.648 84.648 84.648s84.648-37.898 84.648-84.648z" />
</font>
</defs>
</svg>
